generated from DragonRatTiger/Custom-Charts
721 lines
7.7 KiB
Plaintext
721 lines
7.7 KiB
Plaintext
TITLE:Mutation
|
|
TITLEJA:Mutation
|
|
SUBTITLE:--Laur / maimai
|
|
SUBTITLEJA:Laur 「maimai」より
|
|
|
|
BPM:155
|
|
WAVE:Mutation.ogg
|
|
OFFSET:-1.758
|
|
DEMOSTART:32.725
|
|
SCOREMODE:2
|
|
PREIMAGE:image.png
|
|
|
|
COURSE:Oni
|
|
LEVEL:10
|
|
SCOREINIT:1060
|
|
SCOREDIFF:0
|
|
|
|
#START
|
|
1022201020001000,
|
|
12020221,
|
|
11120020,
|
|
100000000000100000200200
|
|
100000202020100000200000,
|
|
1011202000200010,
|
|
01020120,
|
|
1010110121021120,
|
|
1120120210221210, // 19
|
|
|
|
1022201020001000,
|
|
12020202,
|
|
11120020,
|
|
100000000000100000200200
|
|
100000202020100000200000,
|
|
1011202000200010,
|
|
01020120,
|
|
1010110121021120,
|
|
100200200000100200000200
|
|
100000200200101010101010, // 27
|
|
|
|
1000101020112020,
|
|
3000101011012020,
|
|
3000101020112020,
|
|
1110111150802211, // 31
|
|
|
|
#GOGOSTART
|
|
#BPMCHANGE 310
|
|
#SCROLL 0.75
|
|
10221211,
|
|
2000202010201011,
|
|
1000202010201011,
|
|
2000101020201011,
|
|
10221211,
|
|
2000202010201011,
|
|
10221211,
|
|
#GOGOEND
|
|
12112020, // 39
|
|
|
|
#GOGOSTART
|
|
10221211,
|
|
1110202011101110,
|
|
10221211,
|
|
10112022,
|
|
1110202011102020,
|
|
2210201022102010,
|
|
1110202011101110,
|
|
#GOGOEND
|
|
20212210, // 47
|
|
|
|
#GOGOSTART
|
|
10221211,
|
|
1111
|
|
#GOGOEND
|
|
#SCROLL 1.5
|
|
4000,
|
|
#GOGOSTART
|
|
#SCROLL 0.75
|
|
10221211,
|
|
#GOGOEND
|
|
#SCROLL 1.5
|
|
3340,
|
|
#GOGOSTART
|
|
#SCROLL 0.75
|
|
1000221010221010,
|
|
1111
|
|
#GOGOEND
|
|
#SCROLL 1.5
|
|
4000,
|
|
#GOGOSTART
|
|
#SCROLL 0.75
|
|
1000221010221010,
|
|
#GOGOEND
|
|
#SCROLL 1.5
|
|
3344, // 55
|
|
|
|
#BPMCHANGE 155
|
|
#SCROLL 1
|
|
100000100100100100100100
|
|
102020100100000100100000,
|
|
100000100100100100100100
|
|
101010100200000100200000,
|
|
100000200200200200200200
|
|
202020200100000200100000,
|
|
100000200200202020200200
|
|
200000100000100100100000, // 63
|
|
|
|
1000112010020010,
|
|
0010101110112122,
|
|
2000221020020010,
|
|
0022202010001011,
|
|
2000112010020010,
|
|
0010101121222011,
|
|
202000000000200200100100
|
|
100000000200000000300000,
|
|
0030301121112000, // 79
|
|
|
|
1000111010010020,
|
|
0022202020102020,
|
|
2000221010020010,
|
|
0022202010001000,
|
|
2000112010020010,
|
|
0011101022101020,
|
|
2000112030040030,
|
|
0011101040304000, // 87
|
|
|
|
3000101020112020,
|
|
3000101011012020,
|
|
1010101011101111,
|
|
1220122250802211, // 91
|
|
|
|
1022121010222210,
|
|
1022121012012110,
|
|
1000202020201000
|
|
1020001022101000,
|
|
1022221012212040,
|
|
1010101010101011,
|
|
1000100010001000
|
|
1110100020101010,
|
|
2020202020202022,
|
|
2020202022112110, // 99
|
|
|
|
1022110120201010,
|
|
1022110110102020,
|
|
1022120120201010,
|
|
1022120122112040,
|
|
1010101010101011,
|
|
1000100010001000
|
|
1110100010101110,
|
|
2020202020202022,
|
|
1101210121012122, // 107
|
|
|
|
#GOGOSTART
|
|
#BPMCHANGE 310
|
|
#SCROLL 0.75
|
|
2000102010102000,
|
|
1110201020002010,
|
|
2000102020101000,
|
|
1000101020001110,
|
|
2000101000102010,
|
|
1110201020002010,
|
|
200000100200000100200100,
|
|
100000100000101010202020, // 111
|
|
|
|
2000102010102000,
|
|
1110201020002010,
|
|
200000100200200100200100,
|
|
200000100000101010200200,
|
|
1000102000102010,
|
|
1110201020002010,
|
|
1000000020001011,
|
|
5000000000008000, // 115
|
|
|
|
#GOGOEND
|
|
#BPMCHANGE 155
|
|
#SCROLL 1
|
|
2001002000202010,
|
|
1002001000001111, // 175
|
|
|
|
#GOGOSTART
|
|
#BPMCHANGE 310
|
|
20121121,
|
|
1110201110102010,
|
|
2000102020102022,
|
|
200100100100101010200200, // 179
|
|
|
|
10121121,
|
|
1110201010102010,
|
|
2000102020101122,
|
|
200000100100101010200200,
|
|
10121121,
|
|
1110201022102211,
|
|
1010201010102011,
|
|
1010111050000080, // 187
|
|
|
|
#GOGOEND
|
|
3, // 188
|
|
,
|
|
,
|
|
,
|
|
|
|
#END
|
|
|
|
|
|
COURSE:Hard
|
|
LEVEL:8
|
|
SCOREINIT:1570
|
|
SCOREDIFF:0
|
|
|
|
#START
|
|
10212010,
|
|
12020201,
|
|
10120020,
|
|
1000102220001020,
|
|
10220201,
|
|
01030000,
|
|
1000100020010020,
|
|
1000200020020020, // 19
|
|
|
|
10212010,
|
|
12020202,
|
|
10120020,
|
|
1000102220001020,
|
|
10220201,
|
|
01030000,
|
|
1010101020010020,
|
|
1020202020020020, // 27
|
|
|
|
3000101011102000,
|
|
3000101011101000,
|
|
3000101011101010,
|
|
1110101050000080, // 31
|
|
|
|
#GOGOSTART
|
|
#BPMCHANGE 310
|
|
#SCROLL 0.75
|
|
10222020,
|
|
20221020,
|
|
10222020,
|
|
10112020,
|
|
10222020,
|
|
20221020,
|
|
10222020,
|
|
#GOGOEND
|
|
1122, // 39
|
|
|
|
#GOGOSTART
|
|
10222020,
|
|
10221010,
|
|
10222020,
|
|
10112020,
|
|
11222020,
|
|
22221010,
|
|
11222020,
|
|
#GOGOEND
|
|
2221, // 47
|
|
|
|
#GOGOSTART
|
|
10222020,
|
|
1011
|
|
#GOGOEND
|
|
4000,
|
|
#GOGOSTART
|
|
10222020,
|
|
#GOGOEND
|
|
3340,
|
|
#GOGOSTART
|
|
10222220,
|
|
1011
|
|
#GOGOEND
|
|
4000,
|
|
#GOGOSTART
|
|
10222220,
|
|
#GOGOEND
|
|
3344, // 55
|
|
|
|
#BPMCHANGE 155
|
|
#SCROLL 1
|
|
1011101020010010,
|
|
1011101020020020,
|
|
1022202020010010,
|
|
1022202020002010, // 63
|
|
|
|
1000100010020010,
|
|
01101012,
|
|
2000200020020010,
|
|
0022202010001000,
|
|
2000102010020010,
|
|
01101012,
|
|
2000202010020010,
|
|
03333000, // 79
|
|
|
|
1000111010010020,
|
|
02222020,
|
|
2000222010020010,
|
|
02221010,
|
|
2000111010020010,
|
|
01121012,
|
|
2000222030040030,
|
|
01114340, // 87
|
|
|
|
3000101011102000,
|
|
3000101011101000,
|
|
3000101011101010,
|
|
1110111050000080, // 91
|
|
|
|
1020110010201100,
|
|
1020110011102010,
|
|
1020110010201100,
|
|
1020110030004000,
|
|
1010101010101011,
|
|
1010101011102000,
|
|
2020202020202022,
|
|
22224021, // 99
|
|
|
|
1020110020201010,
|
|
1020110010102020,
|
|
1020220020201010,
|
|
1020220022204000,
|
|
1010101010101011,
|
|
1010101011102000,
|
|
2020202020202022,
|
|
2000201020102220, // 107
|
|
|
|
#GOGOSTART
|
|
#BPMCHANGE 310
|
|
#SCROLL 0.75
|
|
20001020,
|
|
11102010,
|
|
10020010,
|
|
00102011,
|
|
10001020,
|
|
11011010,
|
|
20020020,
|
|
10001110, // 111
|
|
|
|
20001020,
|
|
11102010,
|
|
20010010,
|
|
20001011,
|
|
10001020,
|
|
11011010,
|
|
20001011,
|
|
10001110, // 115
|
|
|
|
#GOGOEND
|
|
#BPMCHANGE 155
|
|
#SCROLL 1.5
|
|
2001002000201000,
|
|
1002001000001110, // 175
|
|
|
|
#GOGOSTART
|
|
#BPMCHANGE 310
|
|
#SCROLL 1
|
|
20111020,
|
|
11112020,
|
|
40030040,
|
|
40002210, // 179
|
|
|
|
20111020,
|
|
11111020,
|
|
20112022,
|
|
20002022,
|
|
10111120,
|
|
11112220,
|
|
30001011,
|
|
5008, // 187
|
|
|
|
#GOGOEND
|
|
3, // 188
|
|
,
|
|
,
|
|
,
|
|
|
|
#END
|
|
|
|
|
|
COURSE:Normal
|
|
LEVEL:7
|
|
BALLOON: 8
|
|
SCOREINIT:2520
|
|
SCOREDIFF:0
|
|
|
|
#START
|
|
1221,
|
|
11020201,
|
|
00020020,
|
|
1021,
|
|
10020201,
|
|
01030000,
|
|
1121,
|
|
1221, // 19
|
|
|
|
1221,
|
|
11020201,
|
|
00020020,
|
|
1021,
|
|
10020201,
|
|
01030000,
|
|
11102010,
|
|
11102020, // 27
|
|
|
|
30101110,
|
|
30101110,
|
|
30101110,
|
|
5008, // 31
|
|
|
|
#GOGOSTART
|
|
#BPMCHANGE 310
|
|
#SCROLL 0.5
|
|
12,
|
|
1110,
|
|
12,
|
|
1120,
|
|
12,
|
|
1110,
|
|
12,
|
|
#GOGOEND
|
|
12, // 39
|
|
|
|
#GOGOSTART
|
|
12,
|
|
1110,
|
|
12,
|
|
1120,
|
|
1110,
|
|
2220,
|
|
1111,
|
|
#GOGOEND
|
|
22, // 47
|
|
|
|
#GOGOSTART
|
|
12,
|
|
11
|
|
#GOGOEND
|
|
40,
|
|
#GOGOSTART
|
|
12,
|
|
#GOGOEND
|
|
3340,
|
|
#GOGOSTART
|
|
1120,
|
|
11
|
|
#GOGOEND
|
|
40,
|
|
#GOGOSTART
|
|
1120,
|
|
#GOGOEND
|
|
34, // 55
|
|
|
|
#BPMCHANGE 155
|
|
#SCROLL 1
|
|
1000100010010010,
|
|
1000100010010010,
|
|
2000200020020020,
|
|
2000202020002000, // 63
|
|
|
|
1000000010010010,
|
|
0111,
|
|
2000000020020020,
|
|
0222,
|
|
2000100010010010,
|
|
0111,
|
|
2000200020020020,
|
|
03303000, // 79
|
|
|
|
1000100010010010,
|
|
01101010,
|
|
2000200020020020,
|
|
02202020,
|
|
1000100010010010,
|
|
01101010,
|
|
2000200030030030,
|
|
03304000, // 87
|
|
|
|
30101110,
|
|
30101110,
|
|
30101110,
|
|
5008, // 91
|
|
|
|
12101210,
|
|
12101010,
|
|
12101210,
|
|
12103000,
|
|
11101110,
|
|
11102010,
|
|
22202220,
|
|
22204000, // 99
|
|
|
|
12102010,
|
|
12101020,
|
|
12102010,
|
|
12104000,
|
|
11101110,
|
|
11102010,
|
|
22202220,
|
|
7008, // 107
|
|
|
|
#GOGOSTART
|
|
#BPMCHANGE 310
|
|
#SCROLL 0.5
|
|
20020020,
|
|
10001010,
|
|
10010010,
|
|
00002000,
|
|
10010010,
|
|
10001010,
|
|
20020020,
|
|
10001000, // 111
|
|
|
|
20020020,
|
|
10001010,
|
|
10010010,
|
|
20001000,
|
|
10010010,
|
|
10001010,
|
|
50,
|
|
08, // 115
|
|
|
|
#GOGOEND
|
|
#BPMCHANGE 155
|
|
#SCROLL 1
|
|
2002002000002000,
|
|
1001001000001000, // 175
|
|
|
|
#GOGOSTART
|
|
#BPMCHANGE 310
|
|
#SCROLL 0.5
|
|
20020020,
|
|
1122,
|
|
40040040,
|
|
4011, // 179
|
|
|
|
20020020,
|
|
1212,
|
|
10010010,
|
|
2022,
|
|
10010010,
|
|
1212,
|
|
3011,
|
|
5008, // 187
|
|
|
|
#GOGOEND
|
|
3, // 188
|
|
,
|
|
,
|
|
,
|
|
|
|
#END
|
|
|
|
|
|
COURSE:Easy
|
|
LEVEL:5
|
|
BALLOON: 5
|
|
SCOREINIT:3700
|
|
SCOREDIFF:0
|
|
|
|
#START
|
|
12,
|
|
10010101,
|
|
,
|
|
12,
|
|
10001001,
|
|
01030000,
|
|
12,
|
|
12, // 19
|
|
|
|
12,
|
|
10010101,
|
|
,
|
|
12,
|
|
10001001,
|
|
01030000,
|
|
1011,
|
|
1011, // 27
|
|
|
|
3011,
|
|
3011,
|
|
3011,
|
|
5008, // 31
|
|
|
|
#GOGOSTART
|
|
#BPMCHANGE 310
|
|
#SCROLL 0.5
|
|
1,
|
|
11,
|
|
1,
|
|
12,
|
|
1,
|
|
11,
|
|
1,
|
|
#GOGOEND
|
|
12, // 39
|
|
|
|
#GOGOSTART
|
|
1,
|
|
11,
|
|
1,
|
|
12,
|
|
11,
|
|
22,
|
|
11,
|
|
#GOGOEND
|
|
22, // 47
|
|
|
|
#GOGOSTART
|
|
1,
|
|
1
|
|
#GOGOEND
|
|
4,
|
|
#GOGOSTART
|
|
1,
|
|
#GOGOEND
|
|
34,
|
|
#GOGOSTART
|
|
12,
|
|
1
|
|
#GOGOEND
|
|
4,
|
|
#GOGOSTART
|
|
12,
|
|
#GOGOEND
|
|
34, // 55
|
|
|
|
#BPMCHANGE 155
|
|
#SCROLL 1
|
|
11,
|
|
11,
|
|
22,
|
|
22, // 63
|
|
|
|
10001001,
|
|
0110,
|
|
20002002,
|
|
0220,
|
|
20001001,
|
|
0110,
|
|
20002002,
|
|
0330, // 79
|
|
|
|
1000000010010010,
|
|
0110,
|
|
2000000020020020,
|
|
0220,
|
|
1000000010010010,
|
|
0110,
|
|
2000000030030030,
|
|
0330, // 87
|
|
|
|
3011,
|
|
3011,
|
|
3011,
|
|
5008, // 91
|
|
|
|
10101110,
|
|
1110,
|
|
10101110,
|
|
1130,
|
|
1111,
|
|
11101000,
|
|
2222,
|
|
22204000, // 99
|
|
|
|
1111,
|
|
11101000,
|
|
2222,
|
|
22204000,
|
|
1111,
|
|
11101000,
|
|
2222,
|
|
7008, // 107
|
|
|
|
#GOGOSTART
|
|
#BPMCHANGE 310
|
|
#SCROLL 0.5
|
|
22,
|
|
11,
|
|
10010010,
|
|
00002000,
|
|
11,
|
|
22,
|
|
10010010,
|
|
10001000, // 111
|
|
|
|
22,
|
|
11,
|
|
10010010,
|
|
10001000,
|
|
11,
|
|
22,
|
|
50,
|
|
08, // 115
|
|
|
|
#GOGOEND
|
|
#BPMCHANGE 155
|
|
#SCROLL 1
|
|
20020020,
|
|
10010010, // 175
|
|
|
|
#GOGOSTART
|
|
#BPMCHANGE 310
|
|
#SCROLL 0.5
|
|
11,
|
|
1210,
|
|
40040040,
|
|
41, // 179
|
|
|
|
22,
|
|
1210,
|
|
10010010,
|
|
11,
|
|
11,
|
|
1210,
|
|
33,
|
|
5008, // 187
|
|
|
|
#GOGOEND
|
|
3, // 188
|
|
,
|
|
,
|
|
,
|
|
|
|
#END |