generated from DragonRatTiger/Custom-Charts
1013 lines
11 KiB
Plaintext
1013 lines
11 KiB
Plaintext
TITLE:Observatory
|
|
TITLEJA:Observatory
|
|
SUBTITLE:--Camellia / Paradigm: Reboot
|
|
SUBTITLEJA:かめりあ 「 Paradigm: Reboot」より
|
|
|
|
BPM:195
|
|
WAVE:Observatory.ogg
|
|
OFFSET:-0.969
|
|
DEMOSTART:34.174
|
|
PREIMAGE:image.png
|
|
|
|
|
|
COURSE:Oni
|
|
LEVEL:10
|
|
BALLOON:34,30,30,30
|
|
SCOREINIT:630
|
|
SCOREDIFF:0
|
|
|
|
#START
|
|
#SCROLL 0.75
|
|
100100200200200100002020,
|
|
100100100100200100002020,
|
|
100100200200200100002020,
|
|
122122,
|
|
100100200200200100001010,
|
|
102020102011,
|
|
100011200011,
|
|
100012200000, // 8
|
|
|
|
100100200200200100002020,
|
|
100100100100200100002020,
|
|
100100200200200100002020,
|
|
122122,
|
|
100100200200200100001010,
|
|
122121,
|
|
102120101210, // 15
|
|
|
|
#SCROLL 1
|
|
7,
|
|
,
|
|
800000000000000000000111,
|
|
1021201022112222, // 19
|
|
|
|
1111,
|
|
1111,
|
|
100000100000100000100111,
|
|
1021101021102211,
|
|
1010101010101011,
|
|
1010101010101011,
|
|
1111111111111111,
|
|
#SCROLL 0.75
|
|
000000000000000000220000, // 27
|
|
|
|
#SCROLL 1
|
|
1011201100112011,
|
|
1011201100112022,
|
|
1011201100112011,
|
|
1011201122212221,
|
|
1011201100112011,
|
|
1011201100112022,
|
|
1011201100112011,
|
|
1011201121112111, // 35
|
|
|
|
1011202100112011,
|
|
1011202100112022,
|
|
1011202100112011,
|
|
1011202112211221,
|
|
1011202100112011,
|
|
1011202100112022,
|
|
1011202100112011,
|
|
1010201122112211, // 43
|
|
|
|
1011201100112011,
|
|
1011201100112022,
|
|
1011201100112011,
|
|
1011201122212221,
|
|
1011201100112011,
|
|
1011201100112022,
|
|
1011201100112011,
|
|
1011201121112111, // 51
|
|
|
|
1011202100112011,
|
|
1011202100112022,
|
|
1011202100112011,
|
|
1011202112211221,
|
|
1030303000112011,
|
|
1030303000112022,
|
|
1030301110303011,
|
|
1011221122122111, // 59
|
|
|
|
100012100012,
|
|
100000001020100100200200,
|
|
100012100012,
|
|
100000001020100100100100,
|
|
100011200011,
|
|
200000001010200200100101,
|
|
7,
|
|
0008, // 67
|
|
|
|
100012100012,
|
|
100000001020100100200200,
|
|
100012100012,
|
|
100000000000000010002000
|
|
100100100000200000200200,
|
|
100012100012,
|
|
100000000000000010002000
|
|
100100100000200000100200, // 73
|
|
|
|
7,
|
|
0008,
|
|
111111,
|
|
101010101111,
|
|
32220222,
|
|
02220222,
|
|
1020202000202222,
|
|
1021021022112211, // 81
|
|
|
|
1011102010111022,
|
|
1011102010111022,
|
|
1011202010112022,
|
|
1011202010112211,
|
|
1012202010122022,
|
|
1012202010122022,
|
|
1111111111111111,
|
|
1121212111212121,
|
|
1121212211212122,
|
|
50000008, // 91
|
|
|
|
0022222022222222,
|
|
2022022022022222,
|
|
1111111111103030,
|
|
#SCROLL 0.75
|
|
000000000000000000220000, // 95
|
|
|
|
#GOGOSTART
|
|
#SCROLL 1
|
|
100100200122100100200112,
|
|
1010221121122212,
|
|
100100200222100100200122,
|
|
1010121211122212,
|
|
1012021012021122,
|
|
1012021012021222,
|
|
1011212021121020,
|
|
3030203020301122, // 103
|
|
|
|
100100200122100100200112,
|
|
100200122100122100122111,
|
|
100100200222100100200122,
|
|
100200222100222100111222,
|
|
1003003003001122,
|
|
1003003003001222,
|
|
1111211211112122,
|
|
#GOGOEND
|
|
#SCROLL 0.75
|
|
000000000222200000000000, // 111
|
|
|
|
#SCROLL 1
|
|
100000000222100000000221,
|
|
1022112211112212,
|
|
100000000112200000000221,
|
|
1010121211221121,
|
|
1010101010101111,
|
|
1010101010101111,
|
|
1111211111112111,
|
|
2111221121112211,
|
|
50000008,
|
|
#SCROLL 0.75
|
|
000200200200200200220000, // 121
|
|
|
|
#GOGOSTART
|
|
#SCROLL 1
|
|
100000100100200000100100
|
|
000100100000100020002000,
|
|
100000100100200000100100
|
|
000200100000100020002000,
|
|
100000100100200000100100
|
|
000200100000100010002000,
|
|
1021201021102112,
|
|
100000200200100200000100
|
|
000200100000100020002000,
|
|
1021201021102122,
|
|
1010211210102212,
|
|
111222122121, // 129
|
|
|
|
#GOGOEND
|
|
100000101010
|
|
#GOGOSTART
|
|
200000100100
|
|
000100100000100020002000,
|
|
100000101010200000100200
|
|
000200100000100020002000,
|
|
100000101010200000100100
|
|
000100100000100100200200,
|
|
133333,
|
|
300000101020200000200100
|
|
000100200000100020002000,
|
|
100000101020200000200100
|
|
000200100000100100200200,
|
|
#GOGOEND
|
|
103030303022, // 136
|
|
|
|
#GOGOSTART
|
|
1011202010111010,
|
|
1011202010121020,
|
|
1011202010111010,
|
|
100000100100200000200000
|
|
100100202020100200100000,
|
|
1011202010111010,
|
|
1011202010121020,
|
|
1011202010111010,
|
|
100000202020100100200200
|
|
100100100200100100200200, // 144
|
|
|
|
1011212010111210,
|
|
1011212010121210,
|
|
1011212010111210,
|
|
300000003000000030000000
|
|
300000202020100200100000,
|
|
0030030030030030,
|
|
0030030030030030,
|
|
0030030030030030,
|
|
111111111111, // 152
|
|
|
|
300300222100300222100300,
|
|
1122112222121122,
|
|
200200100100100000000100
|
|
202020100000000100202020,
|
|
1020121211222112,
|
|
1003004030030040,
|
|
334334,
|
|
#GOGOEND
|
|
300000000000000000222222,
|
|
#MEASURE 5/4
|
|
12212212122122121222, // 160
|
|
|
|
#MEASURE 4/4
|
|
7,
|
|
0008,
|
|
|
|
#BPMCHANGE 190.476
|
|
#SCROLL 1.024
|
|
02
|
|
#BPMCHANGE 188.679
|
|
#SCROLL 1.034
|
|
22
|
|
#BPMCHANGE 189.274
|
|
#SCROLL 1.030
|
|
02
|
|
#BPMCHANGE 175.953
|
|
#SCROLL 1.108
|
|
22,
|
|
|
|
#SCROLL 1.059
|
|
0
|
|
#SCROLL 1.013
|
|
2
|
|
#BPMCHANGE 168.539
|
|
#SCROLL 1.011
|
|
2
|
|
#SCROLL 0.966
|
|
2
|
|
#BPMCHANGE 139.535
|
|
#SCROLL 1.115
|
|
2
|
|
#BPMCHANGE 77.519
|
|
#SCROLL 1.919
|
|
2
|
|
#BPMCHANGE 63.290
|
|
#SCROLL 2.249
|
|
2
|
|
#BPMCHANGE 76.142
|
|
#SCROLL 1.785
|
|
2, // 164
|
|
#BPMCHANGE 97.5
|
|
#SCROLL 1.333
|
|
,
|
|
|
|
#END
|
|
|
|
COURSE:Hard
|
|
LEVEL:8
|
|
BALLOON:20,18,18,10,18
|
|
SCOREINIT:1100
|
|
SCOREDIFF:0
|
|
|
|
#START
|
|
#SCROLL 0.75
|
|
11222000,
|
|
11112000,
|
|
11222000,
|
|
122122,
|
|
11222000,
|
|
122121,
|
|
100011100011,
|
|
200022200000, // 8
|
|
|
|
11222000,
|
|
11112000,
|
|
11222000,
|
|
122122,
|
|
11222000,
|
|
122122,
|
|
112112, // 15
|
|
|
|
#SCROLL 1
|
|
7,
|
|
,
|
|
8000000000000011,
|
|
1020201011102000, // 19
|
|
|
|
1111,
|
|
1111,
|
|
10101011,
|
|
1011101011102000,
|
|
1010101110101000,
|
|
1010101110101000,
|
|
1010101011103030,
|
|
, // 27
|
|
|
|
11210121,
|
|
11210122,
|
|
11210121,
|
|
1010201110111000,
|
|
11210121,
|
|
11210122,
|
|
11210121,
|
|
11212220, // 35
|
|
|
|
11220121,
|
|
11220122,
|
|
11220121,
|
|
1010202220202000,
|
|
11220121,
|
|
11220122,
|
|
11220121,
|
|
3, // 43
|
|
|
|
11210121,
|
|
11210122,
|
|
11210121,
|
|
1010201110111000,
|
|
11210121,
|
|
11210122,
|
|
11210121,
|
|
11212220, // 51
|
|
|
|
11220121,
|
|
11220122,
|
|
11220121,
|
|
1010202220202000,
|
|
33330121,
|
|
33330122,
|
|
33033303,
|
|
1011101020222000, // 59
|
|
|
|
|
|
100011100011,
|
|
100011200200,
|
|
100011100011,
|
|
100011100100,
|
|
100011200011,
|
|
200011200200,
|
|
7,
|
|
0008, // 67
|
|
|
|
100011100011,
|
|
100011200200,
|
|
100011100011,
|
|
100011100100,
|
|
100011100011,
|
|
100011200200, // 73
|
|
|
|
7,
|
|
0008,
|
|
111111,
|
|
111111,
|
|
3,
|
|
1,
|
|
2,
|
|
2022, // 81
|
|
|
|
10111011,
|
|
20222022,
|
|
10111011,
|
|
20222022,
|
|
10112011,
|
|
10112022,
|
|
11111110,
|
|
11111110,
|
|
1010101011101110,
|
|
50000008, // 91
|
|
|
|
02222022,
|
|
20202022,
|
|
1010101011103030,
|
|
, // 95
|
|
|
|
#GOGOSTART
|
|
10121012,
|
|
1000101020202220,
|
|
10221022,
|
|
1000202010102220,
|
|
1001001001001000,
|
|
1001001001001000,
|
|
10221122,
|
|
33030300, // 103
|
|
|
|
10121012,
|
|
1000102010102220,
|
|
10221022,
|
|
1000202010101110,
|
|
3003003003003000,
|
|
3003003003003000,
|
|
1000102010201111,
|
|
#GOGOEND
|
|
, // 111
|
|
|
|
|
|
11,
|
|
1011,
|
|
12,
|
|
1022,
|
|
10111110,
|
|
10111110,
|
|
10111111,
|
|
1010111020202220,
|
|
50000008,
|
|
, // 121
|
|
|
|
#GOGOSTART
|
|
10211120,
|
|
10221120,
|
|
10211120,
|
|
122122,
|
|
10211120,
|
|
122122,
|
|
100011100011,
|
|
7, // 129
|
|
|
|
#GOGOEND
|
|
80
|
|
#GOGOSTART
|
|
401120,
|
|
10221120,
|
|
10211120,
|
|
333333,
|
|
30211120,
|
|
10221120,
|
|
#GOGOEND
|
|
333333, // 136
|
|
|
|
#GOGOSTART
|
|
30221122,
|
|
10211121,
|
|
10221122,
|
|
1000101022202220,
|
|
10221122,
|
|
10211121,
|
|
10221122,
|
|
1000101011101110, // 144
|
|
|
|
10221122,
|
|
10211121,
|
|
10221122,
|
|
300030003000300000200200,
|
|
0030030030030030,
|
|
0030030030030030,
|
|
0030030030030030,
|
|
5008, // 152
|
|
|
|
10211021,
|
|
1000101020202220,
|
|
2220100020101000,
|
|
2010100020202220,
|
|
3003004030030040,
|
|
334334,
|
|
#GOGOEND
|
|
3,
|
|
#MEASURE 5/4
|
|
10101110101011102220, // 160
|
|
|
|
#MEASURE 4/4
|
|
7,
|
|
0008,
|
|
|
|
#BPMCHANGE 190.476
|
|
#SCROLL 1.024
|
|
1
|
|
#BPMCHANGE 188.679
|
|
#SCROLL 1.034
|
|
0
|
|
#BPMCHANGE 189.274
|
|
#SCROLL 1.030
|
|
0
|
|
#BPMCHANGE 175.953
|
|
#SCROLL 1.108
|
|
0,
|
|
|
|
#SCROLL 1.059
|
|
1
|
|
#SCROLL 1.013
|
|
0
|
|
#BPMCHANGE 168.539
|
|
#SCROLL 1.011
|
|
0
|
|
#SCROLL 0.966
|
|
0
|
|
#BPMCHANGE 139.535
|
|
#SCROLL 1.115
|
|
1
|
|
#BPMCHANGE 77.519
|
|
#SCROLL 1.919
|
|
0
|
|
#BPMCHANGE 63.290
|
|
#SCROLL 2.249
|
|
1
|
|
#BPMCHANGE 76.142
|
|
#SCROLL 1.785
|
|
0, // 164
|
|
#BPMCHANGE 97.5
|
|
#SCROLL 1.333
|
|
,
|
|
|
|
#END
|
|
|
|
|
|
|
|
COURSE:Normal
|
|
LEVEL:6
|
|
BALLOON:16,16,16,8,16
|
|
SCOREINIT:1530
|
|
SCOREDIFF:0
|
|
|
|
#START
|
|
#SCROLL 0.75
|
|
1120,
|
|
1120,
|
|
1120,
|
|
1122,
|
|
1120,
|
|
1122,
|
|
1011,
|
|
2022, // 8
|
|
|
|
1120,
|
|
1120,
|
|
1120,
|
|
1122,
|
|
1120,
|
|
1122,
|
|
1122, // 15
|
|
|
|
#SCROLL 1
|
|
7,
|
|
,
|
|
8,
|
|
10111120, // 19
|
|
|
|
1111,
|
|
1111,
|
|
10101011,
|
|
10101120,
|
|
10111110,
|
|
10111110,
|
|
10111133,
|
|
, // 27
|
|
|
|
10210120,
|
|
10210120,
|
|
10210120,
|
|
10221120,
|
|
10210120,
|
|
10210120,
|
|
10210120,
|
|
10112220, // 35
|
|
|
|
10210120,
|
|
10210120,
|
|
10210120,
|
|
10221120,
|
|
10210120,
|
|
10210120,
|
|
10210121,
|
|
3, // 43
|
|
|
|
10210120,
|
|
10210120,
|
|
10210120,
|
|
10212120,
|
|
10210120,
|
|
10210120,
|
|
10210120,
|
|
10112220, // 51
|
|
|
|
10210120,
|
|
10210120,
|
|
10210120,
|
|
10212120,
|
|
33330120,
|
|
33330120,
|
|
33003300,
|
|
10112220, // 59
|
|
|
|
11,
|
|
1022,
|
|
11,
|
|
1011,
|
|
11,
|
|
1022,
|
|
7,
|
|
0008, // 67
|
|
|
|
11,
|
|
1022,
|
|
11,
|
|
1011,
|
|
11,
|
|
1022, // 73
|
|
|
|
7,
|
|
0008,
|
|
111100,
|
|
111100,
|
|
3,
|
|
1,
|
|
2,
|
|
2022, // 81
|
|
|
|
10111010,
|
|
20222020,
|
|
10111010,
|
|
20222020,
|
|
10112020,
|
|
10112020,
|
|
10111110,
|
|
10111110,
|
|
10111111,
|
|
5008, // 91
|
|
|
|
2022,
|
|
2222,
|
|
10111133,
|
|
, // 95
|
|
|
|
#GOGOSTART
|
|
10121012,
|
|
10112220,
|
|
10221022,
|
|
10221110,
|
|
1001001001001000,
|
|
1001001001001000,
|
|
10201120,
|
|
33030300, // 103
|
|
|
|
10121012,
|
|
10121210,
|
|
10221022,
|
|
10221110,
|
|
3003003003003000,
|
|
3003003003003000,
|
|
10121212,
|
|
#GOGOEND
|
|
, // 111
|
|
|
|
|
|
11,
|
|
1011,
|
|
12,
|
|
1022,
|
|
1111,
|
|
1111,
|
|
1111,
|
|
11102220,
|
|
50000008,
|
|
, // 121
|
|
|
|
#GOGOSTART
|
|
10211020,
|
|
10221020,
|
|
10211020,
|
|
1212,
|
|
10211020,
|
|
1212,
|
|
1011,
|
|
7, // 129
|
|
|
|
#GOGOEND
|
|
80
|
|
#GOGOSTART
|
|
401120,
|
|
10221020,
|
|
10211020,
|
|
3333,
|
|
30211020,
|
|
10221020,
|
|
#GOGOEND
|
|
3333, // 136
|
|
|
|
#GOGOSTART
|
|
5,
|
|
0008,
|
|
10221020,
|
|
10112220,
|
|
10221020,
|
|
10211020,
|
|
10221020,
|
|
10221110, // 144
|
|
|
|
10221020,
|
|
10211020,
|
|
10221020,
|
|
303030300200,
|
|
0030030030030030,
|
|
0030030030030030,
|
|
0030030030030030,
|
|
5008, // 152
|
|
|
|
10211021,
|
|
10112220,
|
|
20102110,
|
|
21102220,
|
|
3003000030030000,
|
|
3333,
|
|
#GOGOEND
|
|
3,
|
|
#MEASURE 5/4
|
|
1010111022, // 160
|
|
|
|
#MEASURE 4/4
|
|
7,
|
|
0008,
|
|
#BPMCHANGE 190.476
|
|
#SCROLL 1.024
|
|
1
|
|
#BPMCHANGE 188.679
|
|
#SCROLL 1.034
|
|
0
|
|
#BPMCHANGE 189.274
|
|
#SCROLL 1.030
|
|
0
|
|
#BPMCHANGE 175.953
|
|
#SCROLL 1.108
|
|
0,
|
|
#SCROLL 1.059
|
|
1
|
|
#SCROLL 1.013
|
|
0
|
|
#BPMCHANGE 168.539
|
|
#SCROLL 1.011
|
|
0
|
|
#SCROLL 0.966
|
|
0
|
|
#BPMCHANGE 139.535
|
|
#SCROLL 1.115
|
|
1
|
|
#BPMCHANGE 77.519
|
|
#SCROLL 1.919
|
|
0
|
|
#BPMCHANGE 63.290
|
|
#SCROLL 2.249
|
|
1
|
|
#BPMCHANGE 76.142
|
|
#SCROLL 1.785
|
|
0, // 164
|
|
#BPMCHANGE 97.5
|
|
#SCROLL 1.333
|
|
,
|
|
|
|
#END
|
|
|
|
|
|
COURSE:Easy
|
|
LEVEL:4
|
|
BALLOON:20,10,10,6,4,4,4,10
|
|
SCOREINIT:2810
|
|
SCOREDIFF:0
|
|
|
|
#START
|
|
#SCROLL 0.75
|
|
1,
|
|
1,
|
|
1,
|
|
11,
|
|
1,
|
|
11,
|
|
1,
|
|
22, // 8
|
|
|
|
1,
|
|
1,
|
|
1,
|
|
11,
|
|
1,
|
|
12,
|
|
12, // 15
|
|
|
|
#SCROLL 1
|
|
7,
|
|
,
|
|
,
|
|
8, // 19
|
|
|
|
11,
|
|
11,
|
|
11,
|
|
11,
|
|
1110,
|
|
1110,
|
|
1133,
|
|
, // 27
|
|
|
|
1202,
|
|
1202,
|
|
1202,
|
|
1110,
|
|
1202,
|
|
1202,
|
|
1202,
|
|
1120, // 35
|
|
|
|
1202,
|
|
1202,
|
|
1202,
|
|
1110,
|
|
1202,
|
|
1202,
|
|
1202,
|
|
3, // 43
|
|
|
|
1202,
|
|
1202,
|
|
1202,
|
|
1220,
|
|
1202,
|
|
1202,
|
|
1202,
|
|
1120, // 51
|
|
|
|
1202,
|
|
1202,
|
|
1202,
|
|
1220,
|
|
3303,
|
|
3303,
|
|
33,
|
|
3333, // 59
|
|
|
|
3,
|
|
12,
|
|
1,
|
|
11,
|
|
1,
|
|
12,
|
|
7,
|
|
08, // 67
|
|
|
|
1,
|
|
12,
|
|
1,
|
|
11,
|
|
1,
|
|
12, // 73
|
|
|
|
7,
|
|
08,
|
|
11,
|
|
11,
|
|
3,
|
|
1,
|
|
2,
|
|
2, // 81
|
|
|
|
1110,
|
|
2220,
|
|
1110,
|
|
2220,
|
|
1110,
|
|
2220,
|
|
1110,
|
|
1110,
|
|
1111,
|
|
5, // 91
|
|
|
|
8,
|
|
,
|
|
1111,
|
|
, // 95
|
|
|
|
#GOGOSTART
|
|
11,
|
|
1022,
|
|
12,
|
|
1022,
|
|
10010000,
|
|
10010000,
|
|
1011,
|
|
30030300, // 103
|
|
|
|
11,
|
|
1022,
|
|
12,
|
|
1022,
|
|
30030000,
|
|
30030000,
|
|
1011,
|
|
#GOGOEND
|
|
, // 111
|
|
|
|
1,
|
|
11,
|
|
1,
|
|
12,
|
|
1011,
|
|
1011,
|
|
1011,
|
|
1111,
|
|
50000008,
|
|
, // 121
|
|
|
|
#GOGOSTART
|
|
1012,
|
|
1012,
|
|
1012,
|
|
1212,
|
|
1012,
|
|
1212,
|
|
1012,
|
|
7, // 129
|
|
|
|
#GOGOEND
|
|
8
|
|
#GOGOSTART
|
|
402,
|
|
1012,
|
|
1012,
|
|
3333,
|
|
3012,
|
|
1012,
|
|
#GOGOEND
|
|
3333, // 136
|
|
|
|
#GOGOSTART
|
|
5,
|
|
08,
|
|
1012,
|
|
1120,
|
|
1012,
|
|
1012,
|
|
1012,
|
|
1210, // 144
|
|
|
|
1012,
|
|
1012,
|
|
1012,
|
|
1120,
|
|
07000080,
|
|
07000080,
|
|
07000080,
|
|
58, // 152
|
|
|
|
1110,
|
|
1122,
|
|
2102,
|
|
1022,
|
|
33,
|
|
3333,
|
|
#GOGOEND
|
|
3,
|
|
#MEASURE 5/4
|
|
10112, // 160
|
|
|
|
#MEASURE 4/4
|
|
7,
|
|
08,
|
|
#BPMCHANGE 190.476
|
|
#SCROLL 1.024
|
|
1
|
|
#BPMCHANGE 188.679
|
|
#SCROLL 1.034
|
|
0
|
|
#BPMCHANGE 189.274
|
|
#SCROLL 1.030
|
|
0
|
|
#BPMCHANGE 175.953
|
|
#SCROLL 1.108
|
|
0,
|
|
#SCROLL 1.059
|
|
1
|
|
#SCROLL 1.013
|
|
0
|
|
#BPMCHANGE 168.539
|
|
#SCROLL 1.011
|
|
0
|
|
#SCROLL 0.966
|
|
0
|
|
#BPMCHANGE 139.535
|
|
#SCROLL 1.115
|
|
1
|
|
#BPMCHANGE 77.519
|
|
#SCROLL 1.919
|
|
0
|
|
#BPMCHANGE 63.290
|
|
#SCROLL 2.249
|
|
0
|
|
#BPMCHANGE 76.142
|
|
#SCROLL 1.785
|
|
0, // 164
|
|
#BPMCHANGE 97.5
|
|
#SCROLL 1.333
|
|
,
|
|
|
|
#END
|