662 lines
8.5 KiB
Plaintext
662 lines
8.5 KiB
Plaintext
//TJADB Project
|
|
TITLE:Acceleration
|
|
TITLEJA:アクセルレーション
|
|
SUBTITLE:--Toaki Usami feat. Minori Chihara/THE iDOLM@STER ONE FOR ALL
|
|
SUBTITLEJA:
|
|
BPM:191
|
|
WAVE:Acceleration.ogg
|
|
OFFSET:-1.633
|
|
DEMOSTART:76.079
|
|
SCENEPRESET:IMAS
|
|
|
|
|
|
COURSE:Edit
|
|
LEVEL:10
|
|
BALLOON:
|
|
SCOREINIT:360,1010
|
|
SCOREDIFF:88
|
|
|
|
#START
|
|
0,
|
|
0,
|
|
0,
|
|
0020202012221030,
|
|
|
|
0011201020112012,
|
|
1011211212112030,
|
|
0011212222112030,
|
|
0040400022221030, //8
|
|
|
|
#GOGOSTART
|
|
0011201012021012,
|
|
2010201202102011,
|
|
2010201202112012,
|
|
2210221022022012,
|
|
|
|
0210202210112012,
|
|
0211201021112012,
|
|
0210202212112010,
|
|
0022101022111030, //16
|
|
|
|
0011201012021012,
|
|
2010201202102011,
|
|
2010201202112012,
|
|
2210221022022012,
|
|
|
|
0210202210112011,
|
|
2211221221221012,
|
|
0210202212112010,
|
|
#GOGOEND
|
|
00202043, //24
|
|
|
|
0030122020100030,
|
|
0030122012222030,
|
|
0030122010221120,
|
|
0000000022201010,
|
|
|
|
1000201000201022,
|
|
1022201020002011,
|
|
1022201020001020,
|
|
0010201110102022, //32
|
|
|
|
11010102,
|
|
1022201000102011,
|
|
1010002000102022,
|
|
1020101120102010,
|
|
|
|
0022202020112022,
|
|
1022201020112022,
|
|
1012202012221012,
|
|
2010201210102022, //40
|
|
|
|
1010201212202012,
|
|
2010201210102011,
|
|
2010201210102030,
|
|
0022101022111030,
|
|
|
|
0010201210102212,
|
|
1010201212102012,
|
|
2210202120102212,
|
|
1010202121202010, //48
|
|
|
|
0011201020112010,
|
|
2022101020211012,
|
|
2010222120102122,
|
|
2211122122121030,
|
|
|
|
0010201210102212,
|
|
1010201212102012,
|
|
2210202120102212,
|
|
1010202121202010, //56
|
|
|
|
0011201020112010,
|
|
2022101020211012,
|
|
2210202120111030,
|
|
03301223, //60
|
|
|
|
#GOGOSTART
|
|
0011201012021012,
|
|
2010201202102011,
|
|
2010201202112012,
|
|
2210221021012012,
|
|
|
|
0210202210112012,
|
|
0211201021112012,
|
|
0210202212112010,
|
|
0022101022111030, //68
|
|
|
|
0011201012021012,
|
|
2010201202102011,
|
|
2010201202112012,
|
|
0211201021012012,
|
|
|
|
0210202210112011,
|
|
2011201221221012,
|
|
2210202112211221,
|
|
1221121121121030, //76
|
|
|
|
0030003000111010,
|
|
#SCROLL 4
|
|
40000000
|
|
#SCROLL 1
|
|
00102012,
|
|
2010201202112012,
|
|
2210221021012012,
|
|
|
|
0210202210112012,
|
|
2210221021112012,
|
|
0210202212112010,
|
|
0022101022111030, //84
|
|
|
|
#SCROLL 1.2
|
|
0011201012121012,
|
|
#SCROLL 1.4
|
|
2011201212102011,
|
|
#SCROLL 1.6
|
|
2011201212112012,
|
|
#SCROLL 1.8
|
|
0211201022122012, //88
|
|
|
|
#SCROLL 2
|
|
2210202210112011,
|
|
#SCROLL 2.5
|
|
2211221122222210,
|
|
#SCROLL 3
|
|
0210202212112030,
|
|
#GOGOEND
|
|
#BARLINEOFF
|
|
#SCROLL 1
|
|
0000122020002030, //92
|
|
|
|
#BARLINEON
|
|
0030122020100030,
|
|
0030122012222030,
|
|
0030122010221210,
|
|
#SCROLL 3
|
|
00112212111120
|
|
#SCROLL 9.61
|
|
30,
|
|
#BARLINEOFF
|
|
#SCROLL 1
|
|
0, //97
|
|
#END
|
|
|
|
|
|
COURSE:Oni
|
|
LEVEL:8
|
|
BALLOON:
|
|
SCOREINIT:440,1400
|
|
SCOREDIFF:113
|
|
|
|
#START
|
|
0,
|
|
0,
|
|
0,
|
|
0022202022222030,
|
|
|
|
0022102010221020,
|
|
1022102011221030,
|
|
0022102011221030,
|
|
04400003, //8
|
|
|
|
#GOGOSTART
|
|
0010201022202010,
|
|
0010201110102010,
|
|
0010201022202010,
|
|
0010201110102010,
|
|
|
|
0010201110222010,
|
|
0010200010222010,
|
|
0010201011102010,
|
|
0022202022222030, //16
|
|
|
|
0010201022202010,
|
|
0010201110102010,
|
|
0010201022202010,
|
|
0010201110102010,
|
|
|
|
0010201120102011,
|
|
2010201120102212,
|
|
2010101122112210,
|
|
#GOGOEND
|
|
00000043, //24
|
|
|
|
03000003,
|
|
03000003,
|
|
0030000000001120,
|
|
0000000022201010,
|
|
|
|
10212202,
|
|
10212021,
|
|
10012010,
|
|
00012102, //32
|
|
|
|
11010020,
|
|
00010122,
|
|
11010121,
|
|
12112121,
|
|
|
|
0022202010102020,
|
|
02021122,
|
|
0022202010102020,
|
|
02021121, //40
|
|
|
|
01200021,
|
|
01211121,
|
|
01210021,
|
|
0020101020111030,
|
|
|
|
0010201110102011,
|
|
1010201110102010,
|
|
0010202210102022,
|
|
1010202210102050, //48
|
|
|
|
000000000000000000000000000000000000000000000008,
|
|
00002121,
|
|
0010202220102022,
|
|
0222111022111030,
|
|
|
|
0010201110102011,
|
|
1010201110102010,
|
|
0010202210202022,
|
|
1010202210202050, //56
|
|
|
|
000000000000000000000000000000000000000000000008,
|
|
00022011,
|
|
0011201010101030,
|
|
03300003, //60
|
|
|
|
#GOGOSTART
|
|
0010201022202010,
|
|
0010201110102010,
|
|
0010201022202010,
|
|
0010201110102010,
|
|
|
|
0010201110222010,
|
|
0010200010222010,
|
|
0010201011102010,
|
|
0022202022222030, //68
|
|
|
|
0010201022202010,
|
|
0010201110102010,
|
|
0010201022202010,
|
|
0010201110102010,
|
|
|
|
0010201120102011,
|
|
2010201120102212,
|
|
2010101122112211,
|
|
2211221122112030, //76
|
|
|
|
03030000,
|
|
#SCROLL 3
|
|
40000000
|
|
#SCROLL 1
|
|
00102011,
|
|
1010201022202010,
|
|
0010201110102010,
|
|
|
|
0010201110222010,
|
|
0010200010222010,
|
|
0010201011102010,
|
|
0022202022222030, //84
|
|
|
|
0010201022202010,
|
|
0010201110102010,
|
|
0010201022202010,
|
|
0010201110102010,
|
|
|
|
0010201120102011,
|
|
2010201120102212,
|
|
2010101122112210,
|
|
#GOGOEND
|
|
#BARLINEOFF
|
|
00000003, //92
|
|
|
|
#BARLINEON
|
|
03000003,
|
|
03000003,
|
|
03000003,
|
|
0011221111112030,
|
|
#BARLINEOFF
|
|
0, //97
|
|
#END
|
|
|
|
|
|
COURSE:Hard
|
|
LEVEL:6
|
|
BALLOON:3,15
|
|
SCOREINIT:550,2210
|
|
SCOREDIFF:145
|
|
|
|
#START
|
|
0,
|
|
0,
|
|
0,
|
|
00000004,
|
|
0333,
|
|
3333,
|
|
3336,
|
|
000000000008000000000000000000000000000000100000,
|
|
|
|
#GOGOSTART
|
|
02201011,
|
|
02201011,
|
|
02201011,
|
|
01210121,
|
|
01201121,
|
|
0500,
|
|
000000000000000008000000000000000000000000000000,
|
|
00000001,
|
|
02201011,
|
|
02201011,
|
|
02201011,
|
|
01212121,
|
|
01212121,
|
|
21212121,
|
|
0010201010111020,
|
|
#GOGOEND
|
|
00000003,
|
|
|
|
03000003,
|
|
03000003,
|
|
0030000000001120,
|
|
0,
|
|
10212202,
|
|
10212021,
|
|
10012010,
|
|
00012101,
|
|
21000000,
|
|
00010121,
|
|
01200121,
|
|
02011121,
|
|
02201022,
|
|
02201011,
|
|
02201022,
|
|
01210121,
|
|
01200021,
|
|
01211121,
|
|
01210021,
|
|
0010201020111010,
|
|
01201120,
|
|
10201121,
|
|
01201120,
|
|
10201125,
|
|
000000000000000000000000000000000000000000000008,
|
|
00002121,
|
|
01202012,
|
|
02127081,
|
|
01201120,
|
|
10201121,
|
|
01202120,
|
|
10201125,
|
|
000000000000000000000000000000000000000000000008,
|
|
00090000,
|
|
000000000000000000000009000000000000000008000000,
|
|
00000001,
|
|
|
|
#GOGOSTART
|
|
01212021,
|
|
01210121,
|
|
01211121,
|
|
01210121,
|
|
01201121,
|
|
0500,
|
|
000000000000000008000000000000000000000000000000,
|
|
00000001,
|
|
01212021,
|
|
01210121,
|
|
01211121,
|
|
01212121,
|
|
01212121,
|
|
21212121,
|
|
0010201010101011,
|
|
1011101110111030,
|
|
03030000,
|
|
#SCROLL 3
|
|
4000
|
|
#SCROLL 1
|
|
0121,
|
|
01211121,
|
|
01210121,
|
|
01201121,
|
|
0500,
|
|
000000000000000008000000000000000000000000000000,
|
|
00000001,
|
|
01212121,
|
|
21212121,
|
|
21212121,
|
|
01211121,
|
|
01212121,
|
|
21212121,
|
|
0010201010111020,
|
|
#GOGOEND
|
|
00000003,
|
|
03000003,
|
|
03000003,
|
|
03000003,
|
|
030000
|
|
#SCROLL 3
|
|
03,
|
|
#SCROLL 1
|
|
#BARLINEOFF
|
|
0,
|
|
#END
|
|
|
|
|
|
COURSE:Normal
|
|
LEVEL:5
|
|
BALLOON:13
|
|
SCOREINIT:610,3310
|
|
SCOREDIFF:185
|
|
|
|
#START
|
|
0,
|
|
0,
|
|
0,
|
|
0,
|
|
0303,
|
|
0303,
|
|
0306,
|
|
000000000008000000000000000000000000000000100000,
|
|
|
|
#GOGOSTART
|
|
02202011,
|
|
02202011,
|
|
02202011,
|
|
00110113,
|
|
03000000,
|
|
0500,
|
|
000000000000000008000000000000000000000000000000,
|
|
00000001,
|
|
02202011,
|
|
02202011,
|
|
02202011,
|
|
00101011,
|
|
10101011,
|
|
10101011,
|
|
10101011,
|
|
#GOGOEND
|
|
00000003,
|
|
|
|
03000003,
|
|
03000003,
|
|
03000003,
|
|
0,
|
|
1,
|
|
0,
|
|
2,
|
|
0,
|
|
1,
|
|
0,
|
|
2,
|
|
00000002,
|
|
02202022,
|
|
02202022,
|
|
02202022,
|
|
02202033,
|
|
03300000,
|
|
00000044,
|
|
04400000,
|
|
00000001,
|
|
02201020,
|
|
1210,
|
|
1212,
|
|
10201005,
|
|
000000000000000000000000000000000000000000000008,
|
|
00003333,
|
|
03000000,
|
|
00000001,
|
|
02201020,
|
|
1210,
|
|
1212,
|
|
10201005,
|
|
000000000000000000000000000000000000000000000008,
|
|
00090000,
|
|
000000000000000000000009000000000000000008000000,
|
|
00000001,
|
|
|
|
#GOGOSTART
|
|
02202011,
|
|
02202011,
|
|
02202011,
|
|
00110113,
|
|
03000000,
|
|
0500,
|
|
000000000000000008000000000000000000000000000000,
|
|
00000001,
|
|
02202011,
|
|
02202011,
|
|
02202011,
|
|
00101011,
|
|
10101011,
|
|
10101011,
|
|
10101011,
|
|
10101003,
|
|
03030000,
|
|
#SCROLL 2
|
|
3000
|
|
#SCROLL 1
|
|
0001,
|
|
02202011,
|
|
00000003,
|
|
03000000,
|
|
0500,
|
|
000000000000000008000000000000000000000000000000,
|
|
00000001,
|
|
02202011,
|
|
02202011,
|
|
02202011,
|
|
00101011,
|
|
10101011,
|
|
10101011,
|
|
10101044,
|
|
#GOGOEND
|
|
|
|
00000003,
|
|
03000003,
|
|
03000003,
|
|
03000003,
|
|
030000
|
|
#SCROLL 2
|
|
03,
|
|
#SCROLL 1
|
|
#BARLINEOFF
|
|
0,
|
|
#END
|
|
|
|
|
|
COURSE:Easy
|
|
LEVEL:4
|
|
BALLOON:10
|
|
SCOREINIT:670,5940
|
|
SCOREDIFF:275
|
|
|
|
#START
|
|
0,
|
|
0,
|
|
0,
|
|
0,
|
|
0303,
|
|
0303,
|
|
0306,
|
|
000000000008000000000000000000000000000000100000,
|
|
|
|
#GOGOSTART
|
|
00100001,
|
|
00100001,
|
|
00100001,
|
|
00000003,
|
|
0,
|
|
0500,
|
|
000000000000000008000000000000000000000000000000,
|
|
00000001,
|
|
00100001,
|
|
00100001,
|
|
00100001,
|
|
0111,
|
|
1111,
|
|
1500,
|
|
000000000000000008000000000000000000000000000000,
|
|
#GOGOEND
|
|
00000003,
|
|
|
|
03000003,
|
|
03000003,
|
|
03000003,
|
|
0,
|
|
1,
|
|
0,
|
|
2,
|
|
0,
|
|
1,
|
|
0,
|
|
2,
|
|
00000002,
|
|
00200002,
|
|
00200001,
|
|
00100001,
|
|
00100003,
|
|
0300,
|
|
00000004,
|
|
0400,
|
|
00000001,
|
|
01,
|
|
1011,
|
|
11,
|
|
10001015,
|
|
000000000000000000000000000000000000000000000008,
|
|
00000003,
|
|
,
|
|
00000001,
|
|
01,
|
|
1011,
|
|
12,
|
|
20002025,
|
|
000000000000000000000000000000000000000000000008,
|
|
00090000,
|
|
000000000000000000000009000000000000000008000000,
|
|
00000001,
|
|
|
|
#GOGOSTART
|
|
00100001,
|
|
00100001,
|
|
00100001,
|
|
00000003,
|
|
0,
|
|
0500,
|
|
000000000000000008000000000000000000000000000000,
|
|
00000001,
|
|
00100001,
|
|
00100001,
|
|
00100001,
|
|
0111,
|
|
1111,
|
|
1500,
|
|
000000000000000008000000000000000000000000000000,
|
|
00101003,
|
|
03030000,
|
|
30000001,
|
|
00100001,
|
|
00000003,
|
|
0,
|
|
0500,
|
|
000000000000000008000000000000000000000000000000,
|
|
00000001,
|
|
00100001,
|
|
00100001,
|
|
00100001,
|
|
0111,
|
|
1111,
|
|
1600,
|
|
000000000000000008000000000000000000000000400000,
|
|
#GOGOEND
|
|
00000003,
|
|
03000003,
|
|
03000003,
|
|
03000003,
|
|
03000003,
|
|
#BARLINEOFF
|
|
0,
|
|
#END
|
|
|