Files

123 lines
4.0 KiB
Plaintext
Raw Permalink Blame History

This file contains ambiguous Unicode characters
This file contains Unicode characters that might be confused with other characters. If you think that this is intentional, you can safely ignore this warning. Use the Escape button to reveal them.
//TJADB Project
TITLE:Ai no Uta ~Pikmin Theme~
TITLEJA:愛のうた~ピクミンのテーマ
SUBTITLE:--Strawberry Flower/Pikmin
BPM:76
WAVE:Ai no Uta Pikmin Theme.ogg
OFFSET:-3.871
DEMOSTART:57.555
COURSE:Oni
LEVEL:3
#START
000000000000000000000000300000000000000000000000,
100000000000200000000000100000000000200000000000,
100000000000100000000000100000000000200000000000,
100100100000200000000000100100100000200000000000,
100000000000100000000000100000000000000000000000,
100000000000200000000000100000000000200000000000,
100000000000100000000000100000000000200000000000,
100000100000200000000000100000100000200000000000,
100000000000100000000000100000000000000000000000,
000000000000000000000000200000000000000000000000,
000000000000000000000000200000000000000000000000,
100000000000200000000000100000000000200000000000,
100000000000100000000000300000000000000000000000,
500000000000000008000000500000000000000008000000,
100000000000100000000000100000000000000000000000,
100000000000200000000000100000000000200000000000,
100000000000100000000000300000000000000000000000,
100000000000200000000000100000000000200000000000,
100000000000100000000000100000000000200000000000,
200000000000100100100000200000000000100100100000,
100000000000100000000000300000000000000000000000,
100000000000200000000000100000000000200000000000,
100000000000100000000000100000000000200000000000,
300000000000400000000000300000000000400000000000,
100000000000100000000000300000000000000000000000,
#END
COURSE:Normal
LEVEL:1
#START
000000000000000000000000300000000000000000000000,
100000000000200000000000100000000000200000000000,
100000000000100000000000100000000000200000000000,
100100100000200000000000100100100000200000000000,
100000000000100000000000100000000000000000000000,
100000000000200000000000100000000000200000000000,
100000000000100000000000100000000000200000000000,
100000100000200000000000100000100000200000000000,
100000000000100000000000100000000000000000000000,
000000000000000000000000200000000000000000000000,
000000000000000000000000200000000000000000000000,
100000000000200000000000100000000000200000000000,
100000000000100000000000300000000000000000000000,
500000000000000008000000500000000000000008000000,
100000000000100000000000100000000000000000000000,
100000000000200000000000100000000000200000000000,
100000000000100000000000300000000000000000000000,
100000000000200000000000100000000000200000000000,
100000000000100000000000100000000000200000000000,
200000000000100100100000200000000000100100100000,
100000000000100000000000300000000000000000000000,
100000000000200000000000100000000000200000000000,
100000000000100000000000100000000000200000000000,
300000000000400000000000300000000000400000000000,
100000000000100000000000300000000000000000000000,
#END
COURSE:Easy
LEVEL:2
SCOREINIT:1640
SCOREDIFF:880
#START
000000000000000000000000300000000000000000000000,
100000000000200000000000100000000000200000000000,
100000000000100000000000100000000000200000000000,
100000100000000000000000100000100000000000000000,
100000000000100000000000100000000000000000000000,
100000000000200000000000100000000000200000000000,
100000000000100000000000100000000000200000000000,
100000100000100000000000100000100000100000000000,
100000000000100000000000300000000000000000000000,
000000000000000000000000200000000000000000000000,
000000000000000000000000200000000000000000000000,
100000000000200000000000100000000000200000000000,
100000000000100000000000300000000000000000000000,
500000000000000008000000500000000000000008000000,
100000000000100000000000100000000000000000000000,
100000000000200000000000100000000000200000000000,
100000000000100000000000300000000000000000000000,
100000000000200000000000100000000000200000000000,
100000000000100000000000100000000000200000000000,
000000000000100000100000000000000000100000100000,
100000000000100000000000300000000000000000000000,
100000000000200000000000100000000000200000000000,
100000000000100000000000100000000000200000000000,
300000000000400000000000300000000000400000000000,
100000000000100000000000300000000000000000000000,
#END