Other Fixes: 01 Pop Nai Mono Nedari (Fixed BPM) 02 Anime Anataboshi (Trimmed Chart, Fixed Normal 46-50 to match with 3DS2/AC12, Normal(DP) 36(2P), Easy 38, Easy(DP) 33(1P&2P)) Odoru Ponpokorin (Fixed Filename typos, combined Old and New versions into single folder) Nameko no Uta (Moved from "04 Children and Folk" folder to "02 Anime" folder) Netsujou no Spectrum (Moved from "01 Pop" folder to "02 Anime" folder) 05 Variety PERFECT HUMAN (Moved from "01 Pop" folder to "05 Variety" folder)
734 lines
9.7 KiB
Plaintext
734 lines
9.7 KiB
Plaintext
//TJADB Project
|
||
TITLE:Animal Crossing: New Leaf Medley
|
||
TITLEJA:とびだせ どうぶつの森 メドレー
|
||
SUBTITLE:--Kazumi Totaka/Animal Crossing: New Leaf
|
||
SUBTITLEJA:
|
||
BPM:91
|
||
WAVE:Animal Crossing New Leaf Medley.ogg
|
||
OFFSET:-2.945
|
||
DEMOSTART:27.464
|
||
|
||
COURSE:Oni
|
||
LEVEL:7
|
||
BALLOON:
|
||
SCOREINIT:610
|
||
SCOREDIFF:160
|
||
|
||
#START
|
||
1022102010221020,
|
||
1010200000112220,
|
||
1022102010221010,
|
||
2200, //4
|
||
|
||
1022102010221020,
|
||
1000202210112220,
|
||
100000100100200000500000000000000008000000000500,
|
||
000000000000000000000000000000008000000000400000, //8
|
||
|
||
#BPMCHANGE 90.05
|
||
#SCROLL 1.01
|
||
#BARLINEOFF
|
||
0,
|
||
#BPMCHANGE 75.5
|
||
#SCROLL 1.07
|
||
#BARLINEON
|
||
0222, //10
|
||
|
||
#BPMCHANGE 80.66
|
||
#SCROLL 1
|
||
1022111110201122,
|
||
#BPMCHANGE 83.58
|
||
#SCROLL 0.97
|
||
1022101110201020,
|
||
#BPMCHANGE 81.35
|
||
#SCROLL 1
|
||
1022111110201122,
|
||
#BPMCHANGE 82.45
|
||
#SCROLL 0.98
|
||
1022102010202000, //14
|
||
|
||
#BPMCHANGE 82.6
|
||
1022102010221122,
|
||
#BPMCHANGE 81.67
|
||
#SCROLL 0.99
|
||
100000100000100200200000100000202020200000000000,
|
||
#BPMCHANGE 82.08
|
||
1022102010221111,
|
||
#BPMCHANGE 81.87
|
||
1011102010202000, //18
|
||
|
||
#BPMCHANGE 102
|
||
#SCROLL 1
|
||
#GOGOSTART
|
||
200200000200200200000000100010001000100000200000, //19
|
||
|
||
1001102010011020,
|
||
1202102010011020,
|
||
1020120210201020,
|
||
2202220220404000, //23
|
||
|
||
1001102010011020,
|
||
1202102010011020,
|
||
1010202012021020,
|
||
1102020211012202, //27
|
||
|
||
1022110020112200,
|
||
1021120211011020,
|
||
1011202010102202,
|
||
1101220210102010, //31
|
||
|
||
2201100020002202,
|
||
1011010111020101,
|
||
2002002010102202,
|
||
0011010111020000, //35
|
||
#GOGOEND
|
||
|
||
#MEASURE 1/4
|
||
#BARLINEOFF
|
||
0,
|
||
#BPMCHANGE 120
|
||
#MEASURE 3/4
|
||
#BARLINEON
|
||
210120, //37
|
||
|
||
#MEASURE 4/4
|
||
1110201010002020,
|
||
1110201010002020,
|
||
1110201010002000,
|
||
1110201010201020, //41
|
||
|
||
1110201010002220,
|
||
1110201010202020,
|
||
1110201010002000,
|
||
1202, //45
|
||
|
||
1020201010002220,
|
||
1110201010002020,
|
||
1110201010002020,
|
||
12121212, //49
|
||
|
||
11211212,
|
||
02122121,
|
||
03400000, //52
|
||
|
||
#BPMCHANGE 112
|
||
#MEASURE 1/4
|
||
#SCROLL 0.87
|
||
#BARLINEOFF
|
||
0,
|
||
#BPMCHANGE 100.53
|
||
#SCROLL 0.97
|
||
0, //54
|
||
|
||
#BPMCHANGE 98.59
|
||
#MEASURE 3/4
|
||
#SCROLL 0.99
|
||
#BARLINEON
|
||
102102101,
|
||
#BPMCHANGE 97.49
|
||
#SCROLL 1
|
||
102102101,
|
||
#BPMCHANGE 98.34
|
||
#SCROLL 0.99
|
||
102102101,
|
||
#BPMCHANGE 97.58
|
||
#SCROLL 1
|
||
102102101, //58
|
||
|
||
#BPMCHANGE 100.62
|
||
#SCROLL 0.97
|
||
102122201,
|
||
#BPMCHANGE 95.67
|
||
#SCROLL 1.02
|
||
102202202,
|
||
#BPMCHANGE 98.77
|
||
#SCROLL 0.99
|
||
102102201,
|
||
#BPMCHANGE 97.83
|
||
#SCROLL 1
|
||
102102102, //62
|
||
|
||
100401201,
|
||
#BPMCHANGE 97.39
|
||
102202202,
|
||
#BPMCHANGE 98.38
|
||
#SCROLL 0.99
|
||
111102101,
|
||
#BPMCHANGE 97.65
|
||
#SCROLL 1
|
||
102202202, //66
|
||
|
||
#BPMCHANGE 99.1
|
||
#SCROLL 0.98
|
||
102202201,
|
||
#BPMCHANGE 99.66
|
||
101202100, //68
|
||
|
||
#BPMCHANGE 90.52
|
||
#SCROLL 1.08
|
||
101020
|
||
#BPMCHANGE 91.59
|
||
#SCROLL 1.06
|
||
101020
|
||
#BPMCHANGE 71.82
|
||
#SCROLL 1.36
|
||
102220, //69
|
||
|
||
#BPMCHANGE 84.55
|
||
#SCROLL 1.15
|
||
#BARLINEOFF
|
||
1
|
||
#BPMCHANGE 97.25
|
||
#SCROLL 1
|
||
0
|
||
#BPMCHANGE 124.01
|
||
#SCROLL 0.78
|
||
0, //70
|
||
|
||
#BPMCHANGE 128.05
|
||
#MEASURE 4/4
|
||
#SCROLL 0.76
|
||
0
|
||
#BPMCHANGE 131.03
|
||
#SCROLL 0.74
|
||
0
|
||
#BPMCHANGE 137.2
|
||
#SCROLL 0.71
|
||
0
|
||
#BPMCHANGE 106.9
|
||
#SCROLL 0.91
|
||
0, //71
|
||
|
||
4,
|
||
0,
|
||
0, //74
|
||
#END
|
||
|
||
|
||
COURSE:Hard
|
||
LEVEL:6
|
||
BALLOON:14,14
|
||
SCOREINIT:680
|
||
SCOREDIFF:185
|
||
|
||
#START
|
||
10121112,
|
||
11200122,
|
||
10121211,
|
||
2200,
|
||
10121112,
|
||
10221122,
|
||
100000200200200000500000000000000008000000000500,
|
||
000000000000000000000000000000008000000000400000,
|
||
#BPMCHANGE 90.05
|
||
#SCROLL 1.01
|
||
#BARLINEOFF
|
||
,
|
||
#BPMCHANGE 75.5
|
||
#SCROLL 1.07
|
||
#BARLINEON
|
||
0222,
|
||
#BPMCHANGE 80.66
|
||
#SCROLL 1
|
||
1020111110201111,
|
||
#BPMCHANGE 83.58
|
||
#SCROLL 0.97
|
||
12121012,
|
||
#BPMCHANGE 81.35
|
||
#SCROLL 1
|
||
1020111110201111,
|
||
#BPMCHANGE 82.45
|
||
#SCROLL 0.98
|
||
1011102000202000,
|
||
#BPMCHANGE 82.6
|
||
1011102010222000,
|
||
#BPMCHANGE 81.67
|
||
#SCROLL 0.99
|
||
1010111010222000,
|
||
#BPMCHANGE 82.08
|
||
1011102010222220,
|
||
#BPMCHANGE 81.87
|
||
1011102000202000,
|
||
|
||
#BPMCHANGE 102
|
||
#SCROLL 1
|
||
#GOGOSTART
|
||
200200000000200200000000100010001000100000000000,
|
||
1001100010011000,
|
||
1101000000000000,
|
||
1010110100200020,
|
||
20000220,
|
||
1001100010011000,
|
||
1101000000000000,
|
||
1010101011010010,
|
||
7008,
|
||
1010400010101100,
|
||
500000000000000000000000000008000000000000000000,
|
||
1000000010101101,
|
||
7008,
|
||
2200000020002202,
|
||
0011010111010000,
|
||
2000000020202202,
|
||
0011010111010000,
|
||
#GOGOEND
|
||
|
||
#MEASURE 1/4
|
||
#BARLINEOFF
|
||
,
|
||
#BPMCHANGE 120
|
||
#MEASURE 3/4
|
||
#BARLINEON
|
||
210120,
|
||
#MEASURE 4/4
|
||
11211022,
|
||
11211022,
|
||
11211020,
|
||
11211212,
|
||
11211022,
|
||
11211220,
|
||
11211020,
|
||
1202,
|
||
12211022,
|
||
11211022,
|
||
11211022,
|
||
12121210,
|
||
11211212,
|
||
02122121,
|
||
03300000,
|
||
#BPMCHANGE 112
|
||
#MEASURE 1/4
|
||
#SCROLL 0.87
|
||
#BARLINEOFF
|
||
,
|
||
#BPMCHANGE 100.53
|
||
#SCROLL 0.97
|
||
,
|
||
#BPMCHANGE 98.59
|
||
#MEASURE 3/4
|
||
#SCROLL 0.99
|
||
#BARLINEON
|
||
100100101,
|
||
#BPMCHANGE 97.49
|
||
#SCROLL 1
|
||
100200201,
|
||
#BPMCHANGE 98.34
|
||
#SCROLL 0.99
|
||
100100101,
|
||
#BPMCHANGE 97.58
|
||
#SCROLL 1
|
||
100200201,
|
||
#BPMCHANGE 100.62
|
||
#SCROLL 0.97
|
||
100100201,
|
||
#BPMCHANGE 95.67
|
||
#SCROLL 1.02
|
||
100200201,
|
||
#BPMCHANGE 98.77
|
||
#SCROLL 0.99
|
||
100100101,
|
||
#BPMCHANGE 97.83
|
||
#SCROLL 1
|
||
100200201,
|
||
100400101,
|
||
#BPMCHANGE 97.39
|
||
100200201,
|
||
#BPMCHANGE 98.38
|
||
#SCROLL 0.99
|
||
111101001,
|
||
#BPMCHANGE 97.65
|
||
#SCROLL 1
|
||
100200201,
|
||
#BPMCHANGE 99.1
|
||
#SCROLL 0.98
|
||
100100101,
|
||
#BPMCHANGE 99.66
|
||
121,
|
||
#BPMCHANGE 90.52
|
||
#SCROLL 1.08
|
||
111
|
||
#BPMCHANGE 91.59
|
||
#SCROLL 1.06
|
||
111
|
||
#BPMCHANGE 71.82
|
||
#SCROLL 1.36
|
||
100,
|
||
#BPMCHANGE 84.55
|
||
#SCROLL 1.15
|
||
#BARLINEOFF
|
||
1
|
||
#BPMCHANGE 97.25
|
||
#SCROLL 1
|
||
0
|
||
#BPMCHANGE 124.01
|
||
#SCROLL 0.78
|
||
0,
|
||
#BPMCHANGE 128.05
|
||
#MEASURE 4/4
|
||
#SCROLL 0.76
|
||
0
|
||
#BPMCHANGE 131.03
|
||
#SCROLL 0.74
|
||
0
|
||
#BPMCHANGE 137.2
|
||
#SCROLL 0.71
|
||
0
|
||
#BPMCHANGE 106.9
|
||
#SCROLL 0.91
|
||
0,
|
||
4,
|
||
0,
|
||
0,
|
||
#END
|
||
|
||
|
||
COURSE:Normal
|
||
LEVEL:4
|
||
BALLOON:10,11,32
|
||
SCOREINIT:810
|
||
SCOREDIFF:250
|
||
|
||
#START
|
||
10101110,
|
||
11200000,
|
||
10101110,
|
||
2200,
|
||
10101110,
|
||
20202220,
|
||
100000000000000000500000000000000008000000000500,
|
||
000000000000000000000000000000008000000000400000,
|
||
#BPMCHANGE 90.05
|
||
#SCROLL 1.01
|
||
#BARLINEOFF
|
||
,
|
||
#BPMCHANGE 75.5
|
||
#SCROLL 1.07
|
||
#BARLINEON
|
||
0222,
|
||
#BPMCHANGE 80.66
|
||
#SCROLL 1
|
||
10101110,
|
||
#BPMCHANGE 83.58
|
||
#SCROLL 0.97
|
||
100000000000100000500000000000000008000000000000,
|
||
#BPMCHANGE 81.35
|
||
#SCROLL 1
|
||
10101110,
|
||
#BPMCHANGE 82.45
|
||
#SCROLL 0.98
|
||
100000000000100000000000500000000000000008000000,
|
||
#BPMCHANGE 82.6
|
||
10101110,
|
||
#BPMCHANGE 81.67
|
||
#SCROLL 0.99
|
||
10100220,
|
||
#BPMCHANGE 82.08
|
||
10101110,
|
||
#BPMCHANGE 81.87
|
||
10100220,
|
||
|
||
#BPMCHANGE 102
|
||
#SCROLL 1
|
||
#GOGOSTART
|
||
4433,
|
||
1210,
|
||
1001000000000000,
|
||
1010100100000000,
|
||
1120,
|
||
1210,
|
||
1001000000000000,
|
||
1010100010010000,
|
||
7008,
|
||
1413,
|
||
500000000000000000000000000008000000000000000000,
|
||
10001110,
|
||
7008,
|
||
2012,
|
||
500000000000000000000000000000000008000000000000,
|
||
1000000020202002,
|
||
000000500000000000000000000000000008000000000000,
|
||
#GOGOEND
|
||
|
||
#MEASURE 1/4
|
||
#BARLINEOFF
|
||
,
|
||
#BPMCHANGE 120
|
||
#MEASURE 3/4
|
||
#BARLINEON
|
||
,
|
||
#MEASURE 4/4
|
||
10011022,
|
||
10011022,
|
||
10011000,
|
||
10022000,
|
||
10011022,
|
||
10011220,
|
||
10011000,
|
||
1202,
|
||
10011022,
|
||
10011022,
|
||
10011022,
|
||
500000000000000000000000000000000000000008000000,
|
||
10111000,
|
||
20222001,
|
||
03300000,
|
||
#BPMCHANGE 112
|
||
#MEASURE 1/4
|
||
#SCROLL 0.87
|
||
#BARLINEOFF
|
||
,
|
||
#BPMCHANGE 100.53
|
||
#SCROLL 0.97
|
||
,
|
||
#BPMCHANGE 98.59
|
||
#MEASURE 3/4
|
||
#SCROLL 0.99
|
||
#BARLINEON
|
||
111,
|
||
#BPMCHANGE 97.49
|
||
#SCROLL 1
|
||
122,
|
||
#BPMCHANGE 98.34
|
||
#SCROLL 0.99
|
||
111,
|
||
#BPMCHANGE 97.58
|
||
#SCROLL 1
|
||
122,
|
||
#BPMCHANGE 100.62
|
||
#SCROLL 0.97
|
||
112,
|
||
#BPMCHANGE 95.67
|
||
#SCROLL 1.02
|
||
122,
|
||
#BPMCHANGE 98.77
|
||
#SCROLL 0.99
|
||
111,
|
||
#BPMCHANGE 97.83
|
||
#SCROLL 1
|
||
122,
|
||
141,
|
||
#BPMCHANGE 97.39
|
||
122,
|
||
#BPMCHANGE 98.38
|
||
#SCROLL 0.99
|
||
112,
|
||
#BPMCHANGE 97.65
|
||
#SCROLL 1
|
||
122,
|
||
#BPMCHANGE 99.1
|
||
#SCROLL 0.98
|
||
111,
|
||
#BPMCHANGE 99.66
|
||
121,
|
||
#BPMCHANGE 90.52
|
||
#SCROLL 1.08
|
||
9
|
||
#BPMCHANGE 91.59
|
||
#SCROLL 1.06
|
||
0
|
||
#BPMCHANGE 71.82
|
||
#SCROLL 1.36
|
||
0,
|
||
#BPMCHANGE 84.55
|
||
#SCROLL 1.15
|
||
#BARLINEOFF
|
||
0
|
||
#BPMCHANGE 97.25
|
||
#SCROLL 1
|
||
0
|
||
#BPMCHANGE 124.01
|
||
#SCROLL 0.78
|
||
0,
|
||
#BPMCHANGE 128.05
|
||
#MEASURE 4/4
|
||
#SCROLL 0.76
|
||
9
|
||
#BPMCHANGE 131.03
|
||
#SCROLL 0.74
|
||
0
|
||
#BPMCHANGE 137.2
|
||
#SCROLL 0.71
|
||
0
|
||
#BPMCHANGE 106.9
|
||
#SCROLL 0.91
|
||
0,
|
||
8,
|
||
0,
|
||
0,
|
||
#END
|
||
|
||
|
||
COURSE:Easy
|
||
LEVEL:3
|
||
BALLOON:8,8,28
|
||
SCOREINIT:860
|
||
SCOREDIFF:350
|
||
|
||
#START
|
||
11,
|
||
1200,
|
||
11,
|
||
2200,
|
||
11,
|
||
22,
|
||
100000000000000000500000000000000008000000000500,
|
||
0,
|
||
#BPMCHANGE 90.05
|
||
#SCROLL 1.01
|
||
#BARLINEOFF
|
||
080000000000000000000000000000000000000000000000,
|
||
#BPMCHANGE 75.5
|
||
#SCROLL 1.07
|
||
#BARLINEON
|
||
,
|
||
#BPMCHANGE 80.66
|
||
#SCROLL 1
|
||
1111,
|
||
#BPMCHANGE 83.58
|
||
#SCROLL 0.97
|
||
1110,
|
||
#BPMCHANGE 81.35
|
||
#SCROLL 1
|
||
1111,
|
||
#BPMCHANGE 82.45
|
||
#SCROLL 0.98
|
||
500000000000000000000000000008000000000000000000,
|
||
#BPMCHANGE 82.6
|
||
1122,
|
||
#BPMCHANGE 81.67
|
||
#SCROLL 0.99
|
||
1120,
|
||
#BPMCHANGE 82.08
|
||
1111,
|
||
#BPMCHANGE 81.87
|
||
1120,
|
||
|
||
#BPMCHANGE 102
|
||
#SCROLL 1
|
||
#GOGOSTART
|
||
,
|
||
1210,
|
||
1,
|
||
1110,
|
||
12,
|
||
1210,
|
||
1,
|
||
1110,
|
||
7008,
|
||
0403,
|
||
500000000000000000000000000008000000000000000000,
|
||
1011,
|
||
7008,
|
||
2012,
|
||
500000000000000000000000000008000000000000000000,
|
||
1022,
|
||
500000000000000000000000000008000000000000000000,
|
||
|
||
#MEASURE 1/4
|
||
#BARLINEOFF
|
||
#GOGOEND
|
||
,
|
||
#BPMCHANGE 120
|
||
#MEASURE 3/4
|
||
#BARLINEON
|
||
,
|
||
#MEASURE 4/4
|
||
11,
|
||
1012,
|
||
11,
|
||
12,
|
||
11,
|
||
1012,
|
||
11,
|
||
1202,
|
||
11,
|
||
1012,
|
||
11,
|
||
500000000000000000000000000008000000000000000000,
|
||
1110,
|
||
2220,
|
||
0300,
|
||
#BPMCHANGE 112
|
||
#MEASURE 1/4
|
||
#SCROLL 0.87
|
||
#BARLINEOFF
|
||
,
|
||
#BPMCHANGE 100.53
|
||
#SCROLL 0.97
|
||
,
|
||
#BPMCHANGE 98.59
|
||
#MEASURE 3/4
|
||
#SCROLL 0.99
|
||
#BARLINEON
|
||
110,
|
||
#BPMCHANGE 97.49
|
||
#SCROLL 1
|
||
1,
|
||
#BPMCHANGE 98.34
|
||
#SCROLL 0.99
|
||
110,
|
||
#BPMCHANGE 97.58
|
||
#SCROLL 1
|
||
1,
|
||
#BPMCHANGE 100.62
|
||
#SCROLL 0.97
|
||
120,
|
||
#BPMCHANGE 95.67
|
||
#SCROLL 1.02
|
||
1,
|
||
#BPMCHANGE 98.77
|
||
#SCROLL 0.99
|
||
120,
|
||
#BPMCHANGE 97.83
|
||
#SCROLL 1
|
||
1,
|
||
140,
|
||
#BPMCHANGE 97.39
|
||
110,
|
||
#BPMCHANGE 98.38
|
||
#SCROLL 0.99
|
||
120,
|
||
#BPMCHANGE 97.65
|
||
#SCROLL 1
|
||
110,
|
||
#BPMCHANGE 99.1
|
||
#SCROLL 0.98
|
||
120,
|
||
#BPMCHANGE 99.66
|
||
110,
|
||
#BPMCHANGE 90.52
|
||
#SCROLL 1.08
|
||
9
|
||
#BPMCHANGE 91.59
|
||
#SCROLL 1.06
|
||
0
|
||
#BPMCHANGE 71.82
|
||
#SCROLL 1.36
|
||
0,
|
||
#BPMCHANGE 84.55
|
||
#SCROLL 1.15
|
||
#BARLINEOFF
|
||
0
|
||
#BPMCHANGE 97.25
|
||
#SCROLL 1
|
||
0
|
||
#BPMCHANGE 124.01
|
||
#SCROLL 0.78
|
||
0,
|
||
#BPMCHANGE 128.05
|
||
#MEASURE 4/4
|
||
#SCROLL 0.76
|
||
9
|
||
#BPMCHANGE 131.03
|
||
#SCROLL 0.74
|
||
0
|
||
#BPMCHANGE 137.2
|
||
#SCROLL 0.71
|
||
0
|
||
#BPMCHANGE 106.9
|
||
#SCROLL 0.91
|
||
0,
|
||
8,
|
||
0,
|
||
0,
|
||
#END
|