Files
Thonker2 95a934b7e9 PTB Update + other stuff
02 Anime
Luminous (Further reviewed from #154)

05 Variety
Mickey

07 Game Music
BRIGHTEST STARS!!
Wangan Midnight Maximum Tune 6RR PLUS Medley Vol.2 (Further reviewed from #154)

09 Namco Original
Nivalis*Anima (Further updated freeze-beam BPM)
2026-09-26 23:04:16 +08:00

750 lines
5.7 KiB
Plaintext
Executable File

//TJADB Project
TITLE:BRIGHTEST STARS!!
TITLEJA:BRIGHTEST STARS!!
SUBTITLE:--Benitsuki / Ensemble Stars!!
SUBTITLEJA:紅月 「あんさんぶるスターズ!!」より
BPM:144
WAVE:BRIGHTEST STARS.ogg
OFFSET:-2.714
DEMOSTART:48.500
COURSE:Oni
LEVEL:7
BALLOON:32,32
SCOREINIT:1600
SCOREDIFF:0
#START
3002002010000011,
1002002010112020,
1010201201202010,
1001001020002000,
#BPMCHANGE 288
#SCROLL 0.8
6,
000000000000000000000000000008000000000000000000,
10201121,
01201120,
10201121,
01201020,
10201122,
0122,
#BPMCHANGE 144
#SCROLL 1
1010201020120020,
1010201020002022,
1010202010120222,
1011202010002010, //16
1010201010120022,
1011202010210020,
1010202010120112,
2020200300101020,
1000201200101020,
1000201200101020,
1012021010102020,
1001201210112000,
1011201210202011,
1011201210202010,
1001201120012012,
1002102010002020,
1000102011201010,
1000102011201010,
100000000000200000200000500000000000000008000000,
3000000011102220, //32
#BPMCHANGE 288
#SCROLL 0.8
#GOGOSTART
30201121,
01201020,
10201121,
01202022,
10210120,
10212022,
10210120,
34,
10201121,
01201020,
10201121,
01202022,
10210122,
10210122,
10210120,
30030040, //48
7,
0,
0,
82,
334,
334,
443,
34,
#GOGOEND
6,
000000000000000000000000000008000000000000000000,
10201021,
01201020,
30201021,
01201020,
10201021,
#SCROLL 0.5
0011, //64
#BPMCHANGE 144
#SCROLL 1
1000102011201010,
1000102011201010,
100000000000200000200000500000000000000008000000,
3000000011102220,
#GOGOSTART
1010101201201010,
1010202200202011,
#BPMCHANGE 288
#SCROLL 0.8
10210020,
10212022,
10210120,
34,
11201121,
01201020,
11201121,
01202022,
10210122,
10210122,
10221020,
34, //82
#GOGOEND
1000
#GOGOSTART
3021,
01201020,
11201121,
01202022,
10210122,
10112011,
20210210,
34,
11201121,
01201020,
11201121,
01202022,
10210122,
10210122,
10210120,
30030040,
7,
0,
0,
82,
334,
334,
443,
34, //106
#GOGOEND
10201021,
01201120,
10212022,
12201020,
10201021,
01201120,
10212210,
30030030,
30201021,
01201120,
10212022,
12201020,
10221020,
10221020,
30030030,
40040040,
6,
000000000000000000000000000008000000000000000000,
30030030,
0,
0,
0, //128
#END
COURSE:Hard
LEVEL:6
BALLOON:7,28,28
SCOREINIT:2370
SCOREDIFF:0
#START
3001001010000000,
3001001010000000,
1010100100102000,
1001001010002000,
#BPMCHANGE 288
#SCROLL 0.8
6,
000000000000000000000000000008000000000000000000,
10101021,
0110,
1102,
0202,
10101022,
0,
#BPMCHANGE 144
#SCROLL 1
1010100010110000,
11102020,
1010100010110000,
11102020, //16
1010100010110000,
1010100020020020,
1010100010110000,
2020200400101020,
1000200200101020,
1000200200101010,
2002002010101000,
7082,
11110220,
11110220,
1001001020020020,
1001001020002000,
10022010,
10022010,
100000000000000000200000500000000000000008000000,
3011, //32
#BPMCHANGE 288
#SCROLL 0.8
#GOGOSTART
30101011,
0222,
10101011,
00202011,
10010010,
12,
20220010,
33,
10101011,
0222,
10101011,
0221,
10110010,
10110020,
20220010,
30030030, //48
7,
0,
0,
8,
333,
333,
444,
34,
#GOGOEND
6,
000000000000000000000000000008000000000000000000,
10101011,
0110,
3002,
0202,
10101011,
#SCROLL 0.5
01, //64
#BPMCHANGE 144
#SCROLL 1
10022010,
10022010,
100000000000000000200000500000000000000008000000,
3011,
#GOGOSTART
1010101100202000,
1010101100202000,
#BPMCHANGE 288
#SCROLL 0.8
10210010,
1120,
20220010,
33,
10101011,
0222,
10101011,
00202011,
10010010,
10010010,
2222,
33, //82
#GOGOEND
1000
#GOGOSTART
3011,
0222,
10101011,
00202011,
10010010,
1220,
20220010,
33,
10101011,
0222,
10101011,
00202011,
10010010,
10010020,
20220010,
30030030,
7,
0,
0,
8,
333,
333,
444,
34, //106
#GOGOEND
10201011,
0211,
10010010,
12,
10201011,
0211,
10010010,
30030030,
30201011,
0211,
10010010,
12,
20020020,
22,
30030030,
40040040,
6,
000000000000000000000000000008000000000000000000,
30030030,
0,
0,
0, //128
#END
COURSE:Normal
LEVEL:3
BALLOON:17,17
SCOREINIT:4890
SCOREDIFF:0
#START
33,
33,
1110,
1011,
#BPMCHANGE 288
#SCROLL 0.5
6,
000000000000000000000000000008000000000000000000,
10001001,
0,
1,
0,
10001001,
0,
#BPMCHANGE 144
#SCROLL 1
1110,
12,
1110,
22, //16
1110,
12,
1110,
4,
1200,
1200,
1110,
12,
1102,
1102,
11,
11,
12,
12,
11,
3, //32
#BPMCHANGE 288
#SCROLL 0.5
#GOGOSTART
30001001,
01,
10001001,
0,
1001,
12,
1001,
14,
10001001,
01,
10001001,
0001,
1001,
1002,
2001,
3, //48
7,
0,
0,
8,
3,
3,
4,
31,
#GOGOEND
6,
000000000000000000000000000008000000000000000000,
10001001,
0,
1,
0,
10001001,
0, //64
#BPMCHANGE 144
#SCROLL 1
12,
12,
11,
3,
#GOGOSTART
2200,
2200,
#BPMCHANGE 288
#SCROLL 0.5
1001,
12,
1001,
14,
10001001,
01,
10001001,
0001,
1001,
1001,
1002,
24, //82
#GOGOEND
1000
#GOGOSTART
3001,
01,
10001001,
0,
1001,
14,
1001,
14,
10001001,
01,
10001001,
0001,
1001,
1002,
2001,
3,
7,
0,
0,
8,
3,
3,
4,
33, //106
#GOGOEND
6,
000000000000000000000008000000000000000000000000,
1001,
12,
11,
0110,
1001,
1001,
11,
0110,
1001,
12,
1002,
21,
3,
4,
6,
000000000000000000000000000008000000000000000000,
30030030,
0,
0,
0, //128
#END
COURSE:Easy
LEVEL:2
BALLOON:13,13
SCOREINIT:8440
SCOREDIFF:0
#START
3,
3,
1,
11,
#BPMCHANGE 288
#SCROLL 0.5
6,
000000000000000000000008000000000000000000000000,
1,
0,
1,
0,
1,
0,
#BPMCHANGE 144
#SCROLL 1
11,
1,
11,
2, //16
11,
1,
11,
4,
1,
1,
11,
1,
1100,
1100,
11,
1,
1,
1,
11,
3, //32
#BPMCHANGE 288
#SCROLL 0.5
#GOGOSTART
31,
0,
11,
0,
1,
1,
2,
3,
11,
0,
11,
0,
1,
1,
2,
3, //48
7,
0,
0,
8,
3,
3,
3,
3,
#GOGOEND
6,
000000000000000000000008000000000000000000000000,
1,
0,
1,
0,
1,
0, //64
#BPMCHANGE 144
#SCROLL 1
1,
1,
11,
3,
#GOGOSTART
2,
2,
#BPMCHANGE 288
#SCROLL 0.5
1,
1,
1,
2,
11,
0,
11,
0,
1,
1,
1,
22, //82
#GOGOEND
1
#GOGOSTART
3,
0,
11,
0,
1,
1,
2,
3,
11,
0,
11,
0,
1,
1,
2,
3,
7,
0,
0,
8,
3,
3,
3,
3, //106
#GOGOEND
11,
0,
1,
1,
11,
0,
1,
1,
11,
0,
1,
1,
2,
2,
3,
3,
6,
000000000000000000000008000000000000000000000000,
3003,
0,
0,
0, //128
#END