Files
2025-05-17 08:58:03 -04:00

427 lines
17 KiB
Plaintext
Raw Permalink Blame History

This file contains ambiguous Unicode characters
This file contains Unicode characters that might be confused with other characters. If you think that this is intentional, you can safely ignore this warning. Use the Escape button to reveal them.
//TJADB Project
TITLE:Bambini
TITLEJA:バンビーニ
SUBTITLE:--Hiroshi Okubo feat. Chizuru Miura/Kotoba no Puzzle: Mojipittan
SUBTITLEJA:「もじぴったん大辞典」より
BPM:165.99
WAVE:Bambini.ogg
OFFSET:-3.085
DEMOSTART:41.566
COURSE:Oni
LEVEL:8
SCOREINIT:510
SCOREDIFF:133
#START
000000200000000000200000000000200000000000200000,
#BPMCHANGE 165.4
200200200200200200200200200000101010200000000000,
#BPMCHANGE 165.99
100000000000100000000000100000000000100000200000,
100000200000100000000000100000000000100000200000,
100000200000100000000000100000000000100000200000,
100000200000100000000000100000200200200000200000,
100000000000100000000000100000000100100000200000,
100000200000100200200000100000200200100200200000,
100000000000100000000000100000000000100000200000,
100000100000100000100000100000202020200000200000,
400000000000100000000100100000100000200000100100,
100000200000100000200000100000100000200000000000,
100000000000100000100100100000200000100000200000,
000000200000100000200200100100100000200200200000,
100000000000100000000100100000100000200000100100,
100000200000100000200000100000100000200000000000,
100000100100100000100100100000200000100000200200,
000000200000200200200000200200100100200000000000,
300000000000000000000000000000000000200000000000,
200000000000000000000000000000000000100000000000,
100000000000000000000000000000000000200000000000,
200000000000000000000000000000000000100000000000,
100000000000000000100000200000000000200000200000,
100000000000000000100000200000000000100000200000,
100000000000100000200000000000200000000000200000,
200000100000200000100000200000100000300000400000,
000000000000000000000000000000000000400000000000,
100000000000200000000200100100100000200000100100,
100000100000200200000200100100200000100100200000,
100000000000200000000200100100100000200000100100,
100000100000200200000200100100200000000000200000,
100000000000200000000200100100100000200000100100,
100000100000200200000200100100200000100100200000,
100000000000200000000200100100200000100000400000,
000000200000200200200200200200200200200200200000,
100000000000200000100000100000200000000000200000,
100000200000100000200000000000100000200000000000,
100000000000200000100000100000200000000000200000,
100000200000100000200000000000100000100000000000,
100100100000100100100000200200200000200200200000,
100100100000100100100000200200200000200200200000,
100100100000200200200000100100100000200200200000,
100010002000100010002000100010002000100010002000,
#GOGOSTART
100000000000100000000000200000000000200000200000,
100000200000100000000000200000000000100000200000,
100000000000100000000000200000000000200000200000,
200020002000200020002000200020002000200020002000,
100000000000100000000000200000000000200000200000,
100000200000100000000000200000000000100000200000,
100000000000100000000000200000000000200000200000,
100000200000000200000000200000100100100000100000,
100000000000200000000200100100100000200000100100,
100000100000200200000200100100200000100100200000,
100000000000200000000200100100100000200000100100,
100000100000200200000200100100200000000000200000,
100000000000200000000200100100100000200000100100,
100000100000200200000200100100200000100100200000,
300000000000300000400000300000400000000000400000,
000000000000200200200200200200200200200200200200,
#GOGOEND
000000000000000000000000000000000000000000000000,
100000000000000000100000000000100000200000000000,
100000000000200000200000000000200000000000100100,
100000100000200000100000000000100000200000000000,
100000000000200000200000000000200000000000000000,
100000100000200000100000000000100000200000000000,
100000000000200000200000000000200000000000100100,
100000100000200000100000000000100000200000000000,
100000000000200000200000000000200000000000000000,
100000000000000000100000000000100000200000200000,
100000100000200000100000000000100000200000200000,
100000000000200000100000000000100000200000200000,
100000100000200000200000100000200000100000000000,
100000000000000000100000000000100000200000200000,
100000100000200000100000000000100000200000200000,
300000000000300000400000300000400000000000400000,
200200100000200200100000200200100000300000400000,
000000000000000000000000000000000000400000000000,
100000200000100000000200100100100000200000100100,
100000100000200200000200100100200000100100200000,
100000200000100000000200100100100000200000100100,
100000100000200200000200100100200000200000000000,
100000200000100000000200100100100000200000100100,
100000100000200200000200100100200200100100200000,
100100200000100000200000100000000000100000400000,
000000000000202020200200200200200200200200200000,
#END
COURSE:Hard
LEVEL:6
BALLOON:6,6
SCOREINIT:610
SCOREDIFF:150
#START
000000200000000000200000000000200000000000200000,
#BPMCHANGE 165.4
000000000000000000000000000000000000400000000000,
#BPMCHANGE 165.99
100000000000100000000000100000000000100000200000,
100000200000100000000000100000000000100000200000,
100000000000100000000000100000000000100000200000,
100000200000100000000000100000200200200000200000,
100000000000100000000000100000000000100000200000,
100000200000100000000000100000000000100000200000,
100000000000100000000000100000000000100000200000,
100000100000100000100000100000200200200000200000,
400000000000100000000000100000000000100000200000,
100000200000100000200000100000000000100000200000,
100000000000100000000000100000000000100000200000,
000000200000100000200000100000000000200000200000,
100000000000100000000000100000000000100000200000,
100000200000100000200000100000000000100000200000,
100000000000100000000000100000000000100000200000,
000000200000000000200000100000000000100000200000,
300000000000000000000000000000000000200000000000,
200000000000000000000000000000000000100000000000,
100000000000000000000000000000000000200000000000,
200000000000000000000000000000000000100000000000,
100000000000000000100000200000000000200000000000,
100000000000000000100000200000000000100000000000,
100000000000100000200000000000200000000000200000,
200000100000200000100000200000100000300000400000,
000000000000000000000000000000000000400000000000,
100000000000200000000000100000000000100000000000,
100000000000200000000000100000200000100000200000,
100000000000200000000000100000000000100000000000,
100000000000200000000000100000200000000000200000,
100000000000200000000000100000000000100000000000,
100000000000200000000000100000200000100000200000,
100000000000200000000000100000000000100000400000,
000000600000000000000000000000800000000000000000,
100000000000200000100000100000200000000000200000,
100000200000100000200000000000100000200000000000,
100000000000200000100000100000200000000000200000,
100000200000100000200000000000100000100000000000,
100000000000100000000000200200200000200200200000,
100000000000100000000000200200200000200200200000,
100000000000200200200000100000000000200200200000,
700000000000000000000000000000000800000000000000,
#GOGOSTART
100000000000100000000000200000000000200000000000,
100000200000100000000000200000000000200000200000,
100000000000100000000000200000000000200000000000,
700000000000000000000000000000000800000000000000,
100000000000100000000000200000000000200000000000,
100000200000100000000000200000000000200000200000,
100000000000100000000000200000000000200000000000,
100000200000000200000000400000000000000000000000,
100000000000200000000000100000100000200000000000,
100000000000200000000000200000100000200000000000,
100000000000200000000000100000100000200000000000,
100000000000200000000000200000100000200000200000,
100000000000200000000000100000100000200000000000,
100000000000200000000000200000100000200000000000,
300000000000300000400000300000400000000000400000,
000000000000600000000000000000000000800000000000,
#GOGOEND
000000000000000000000000000000000000000000000000,
200000000000000000200000000000200000200000000000,
200000000000200000200000000000000000000000000000,
200000000000000000200000000000200000200000000000,
200000000000200000200000000000000000000000000000,
200000000000000000200000000000200000200000000000,
200000000000200000200000000000000000000000000000,
200000000000000000200000000000200000200000000000,
200000000000200000200000000000000000000000000000,
100000000000000000000000100000000000000000000000,
100000000000000000000000100000000000000000000000,
100000000000000000000000100000000000000000000000,
100000000000000000000000000000000000000000000000,
100000000000200000000000100000000000200000000000,
100000000000200000000000100000000000200000000000,
100000000000100000100000000000100000000000100000,
200000100000200000100000200000100000300000400000,
000000000000000000000000000000000000400000000000,
100000000000100000000000100000100000200000000000,
100000000000100000000000100000200000200000000000,
100000000000100000000000100000100000200000000000,
100000000000100000000000100000200000200000000000,
100000000000100000000000100000100000200000000000,
100000000000100000000000200000100000200000000000,
100000200000100000200000100000000000100000400000,
000000000000600000000000000000000000000000800000,
#END
COURSE:Normal
LEVEL:4
BALLOON:5,8,8
SCOREINIT:670
SCOREDIFF:150
#START
200000000000200000000000200000000000200000000000,
#BPMCHANGE 165.4
000000000000000000000000000000000000400000000000,
#BPMCHANGE 165.99
100000000000100000000000100000000000100000000000,
100000000000100000000000100000000000000000000000,
100000000000100000000000100000000000100000000000,
100000000000100000000000100000000000000000000000,
100000000000100000000000100000000000100000000000,
100000000000100000000000100000000000000000000000,
100000000000100000000000100000000000100000000000,
100000000000100000000000100000000000000000000000,
400000000000100000000000100000000000100000000000,
100000000000100000000000100000000000100000000000,
100000000000100000000000100000000000100000000000,
000000000000200000000000200000000000000000000000,
100000000000100000000000100000000000100000000000,
100000000000100000000000100000000000100000000000,
100000000000100000000000100000000000100000000000,
000000200000000000200000000000000000000000000000,
300000000000000000000000000000000000000000000000,
200000000000000000000000000000000000100000000000,
100000000000000000000000000000000000200000000000,
200000000000000000000000000000000000100000000000,
100000000000000000000000200000000000000000000000,
100000000000000000000000200000000000000000000000,
100000000000100000000000100000000000100000000000,
500000000000000000000000000000000000000080000000,
000000000000000000000000000000000000400000000000,
100000000000100000000000100000000000100000000000,
100000000000100000000000100000000000200000000000,
100000000000100000000000100000000000100000000000,
100000000000100000000000100000000000200000000000,
100000000000100000000000100000000000100000000000,
100000000000100000000000100000000000200000000000,
100000000000100000000000100000000000300000300000,
000000000000000000000000000000000000000000000000,
100000000000200000000000000000000000000000000000,
100000000000200000000000000000000000000000000000,
100000000000200000000000000000000000200000000000,
100000000000200000000000000000000000000000000000,
100000000000100000000000200000000000200000000000,
100000000000100000000000200000000000200000000000,
100000000000100000000000200000000000200000000000,
700000000000000000000000000000800000000000000000,
#GOGOSTART
500000000000000000000000000000000000000000000000,
000080000000000000000000000000000000000000000000,
500000000000000000000000000000000000000000000000,
000080000000000000000000000000000000000000000000,
9,
8,
9,
8,
100000000000100000000000100000000000100000000000,
100000000000100000000000200000000000200000000000,
100000000000100000000000100000000000100000000000,
100000000000200000000000200000000000000000000000,
100000000000100000000000100000000000100000000000,
100000000000100000000000200000000000200000000000,
300000000000300000000000300000000000000000600000,
000000000000000000000000000000000000000080000000,
#GOGOEND
000000000000000000000000000000000000000000000000,
100000000000000000100000000000000000000000000000,
200000000000000000200000000000000000000000000000,
100000000000000000100000000000000000000000000000,
200000000000000000200000000000000000000000000000,
100000000000000000100000000000000000000000000000,
200000000000000000200000000000000000000000000000,
100000000000000000100000000000000000000000000000,
200000000000000000200000000000000000000000000000,
100000000000000000000000100000000000000000000000,
200000000000000000000000200000000000000000000000,
200000000000000000000000200000000000000000000000,
100000000000000000000000000000000000000000000000,
100000000000000000000000100000000000000000000000,
200000000000000000000000200000000000000000000000,
300000000000300000000000300000000000000000600000,
000000000000000000000000000000000000000080000000,
000000000000000000000000000000000000400000000000,
100000000000100000000000100000000000100000000000,
100000000000100000000000100000000000200000000000,
100000000000100000000000100000000000100000000000,
100000000000100000000000100000000000200000000000,
100000000000100000000000100000000000100000000000,
100000000000100000000000200000000000200000000000,
100000000000100000000000100000000000300000300000,
000000000000600000000000000000000000000000000080,
#END
COURSE:Easy
LEVEL:4
BALLOON:3,5,5
SCOREINIT:520
SCOREDIFF:100
#START
100000000000100000000000100000000000100000000000,
#BPMCHANGE 165.4
500000000000000000000000000080000000000000000000,
#BPMCHANGE 165.99
100000000000000000000000100000000000000000000000,
100000000000100000000000100000000000000000000000,
100000000000000000000000100000000000000000000000,
100000000000100000000000100000000000000000000000,
100000000000000000000000100000000000000000000000,
100000000000100000000000100000000000100000000000,
100000000000000000000000100000000000000000000000,
100000000000100000000000100000000000000000000000,
100000000000000000000000100000000000000000000000,
100000000000100000000000100000000000100000000000,
100000000000000000000000100000000000000000000000,
000000000000000000000000000000000000000000000000,
100000000000000000000000100000000000000000000000,
100000000000100000000000100000000000100000000000,
100000000000000000000000100000000000000000000000,
000000000000000000000000000000000000000000000000,
100000000000000000000000000000000000000000000000,
200000000000000000000000000000000000100000000000,
100000000000000000000000000000000000200000000000,
200000000000000000000000000000000000100000000000,
100000000000000000000000200000000000000000000000,
100000000000000000000000200000000000000000000000,
100000000000100000000000100000000000100000000000,
500000000000000000000000000000000000000000000800,
000000000000000000000000000000000000000000000000,
100000000000100000000000100000000000100000000000,
100000000000100000000000100000000000000000000000,
100000000000100000000000100000000000100000000000,
100000000000100000000000100000000000000000000000,
100000000000100000000000100000000000100000000000,
100000000000100000000000100000000000000000000000,
100000000000100000000000100000000000100000000000,
000000000000000000000000000000000000000000000000,
100000000000100000000000000000000000000000000000,
100000000000100000000000000000000000000000000000,
100000000000100000000000000000000000000000000000,
100000000000100000000000000000000000000000000000,
100000000000100000000000200000000000200000000000,
100000000000100000000000200000000000000000000000,
100000000000100000000000200000000000200000000000,
700000000000000000000000000000000000000080000000,
#GOGOSTART
500000000000000000000000000000000000000000000000,
000080000000000000000000000000000000000000000000,
500000000000000000000000000000000000000000000000,
000080000000000000000000000000000000000000000000,
9,
8,
9,
8,
100000000000100000000000100000000000000000000000,
200000000000200000000000200000000000000000000000,
100000000000100000000000100000000000000000000000,
100000000000000000000000000000000000000000000000,
100000000000100000000000100000000000000000000000,
200000000000200000000000200000000000000000000000,
300000000000300000000000300000000000000000600000,
000000000000000000000000000000000000000800000000,
#GOGOEND
000000000000000000000000000000000000000000000000,
100000000000000000100000000000000000000000000000,
200000000000000000200000000000000000000000000000,
100000000000000000100000000000000000000000000000,
200000000000000000200000000000000000000000000000,
100000000000000000100000000000000000000000000000,
200000000000000000200000000000000000000000000000,
100000000000000000100000000000000000000000000000,
200000000000000000200000000000000000000000000000,
100000000000000000000000100000000000000000000000,
200000000000000000000000200000000000000000000000,
200000000000000000000000200000000000000000000000,
100000000000000000000000000000000000000000000000,
100000000000000000000000100000000000000000000000,
200000000000000000000000200000000000000000000000,
300000000000300000000000300000000000000000600000,
000000000000000000000000000000000000000800000000,
000000000000000000000000000000000000000000000000,
100000000000100000000000100000000000100000000000,
100000000000100000000000100000000000000000000000,
100000000000100000000000100000000000100000000000,
100000000000100000000000100000000000000000000000,
100000000000100000000000100000000000100000000000,
100000000000100000000000100000000000000000000000,
100000000000100000000000100000000000100000000000,
000000000000600000000000000000000000000000000800,
#END