299 lines
3.4 KiB
Plaintext
299 lines
3.4 KiB
Plaintext
//TJADB Project
|
|
TITLE:Boku no→Chikyuu, Bokura no Chikyuu
|
|
TITLEJA:僕の地球 僕らの地球
|
|
SUBTITLE:--Go Shiina & Kimio Yutatsu/Mr. DRILLER DrillLand
|
|
SUBTITLEJA:ミスタードリラードリルランド
|
|
BPM:130
|
|
WAVE:Bokura no Chikyuu Boku no Chikyuu.ogg
|
|
OFFSET:-5.544
|
|
DEMOSTART:22.156
|
|
|
|
COURSE:Oni
|
|
LEVEL:7
|
|
BALLOON:15
|
|
SCOREINIT:720
|
|
SCOREDIFF:193
|
|
|
|
|
|
#START
|
|
|
|
|
|
,
|
|
1010011020100110,
|
|
2010221022101000,
|
|
1010011020100110,
|
|
2010221022101000,
|
|
1010011020100110,
|
|
2010221022101000,
|
|
1010011020100110,
|
|
2010221022111000,
|
|
1010011020100110,
|
|
2010221022111000,
|
|
1010011020100110,
|
|
2010221022111000,
|
|
1010220000002222,
|
|
2010221022111000,
|
|
1010011020100110,
|
|
2010221022111000,
|
|
1010222020102220,
|
|
1000101020102220,
|
|
2010222020102220,
|
|
1000101020102220,
|
|
1020102010111020,
|
|
1020102010222220,
|
|
1020102010111020,
|
|
1022102010111020,
|
|
1022102010111020,
|
|
1020101110112220,
|
|
#MEASURE 8/4
|
|
300000300000000000300000300000000000300000600000000000000000000000000008000000000000000000000000,
|
|
|
|
#GOGOSTART
|
|
#MEASURE 4/4
|
|
1011200010112000,
|
|
1011202010112000,
|
|
1011200010112000,
|
|
500000000000000000000000000000000008000000000000,
|
|
1010202220202000,
|
|
1010202220202000,
|
|
3333,
|
|
500000000000000000000000000000000008000000000000,
|
|
1011200010112000,
|
|
1011202010112000,
|
|
1011200010112000,
|
|
1110101011221122,
|
|
1011200010112000,
|
|
1011202010222000,
|
|
9,
|
|
8,
|
|
1011202010112010,
|
|
1011202010112020,
|
|
1011202010112010,
|
|
1110102211221122,
|
|
1011202010112010,
|
|
1011202010222000,
|
|
3333,
|
|
600000000000000000000000000000000008000000000000,
|
|
3,
|
|
|
|
#GOGOEND
|
|
|
|
|
|
#END
|
|
|
|
|
|
COURSE:Hard
|
|
LEVEL:4
|
|
BALLOON:13
|
|
SCOREINIT:660
|
|
SCOREDIFF:130
|
|
|
|
|
|
#START
|
|
|
|
|
|
,
|
|
1010011010100110,
|
|
01212110,
|
|
1010011020100110,
|
|
01212110,
|
|
1010011020100110,
|
|
01212110,
|
|
1010011020100110,
|
|
01212110,
|
|
1010011020100110,
|
|
0010201020111000,
|
|
1010011020100110,
|
|
0010201020111000,
|
|
1010011020100110,
|
|
0010201020111000,
|
|
1010011020100110,
|
|
0010201020111000,
|
|
11021102,
|
|
10112122,
|
|
11021102,
|
|
10112122,
|
|
10101011,
|
|
1110,
|
|
12121211,
|
|
12121010,
|
|
12121211,
|
|
12121000,
|
|
#MEASURE 8/4
|
|
3303303600008000,//28
|
|
|
|
#MEASURE 4/4
|
|
#GOGOSTART
|
|
1011100010111000,
|
|
1011101010111000,
|
|
1011100010111000,
|
|
5008,
|
|
2000202220202000,
|
|
2000202220202000,
|
|
3333,
|
|
5008,
|
|
1011100010111000,
|
|
1011101010111000,
|
|
1011100010111000,
|
|
5008,
|
|
1011100010111000,
|
|
1011101010222000,
|
|
9009,
|
|
8,
|
|
1011101010111010,
|
|
1011101010111000,
|
|
1011101010111010,
|
|
1011101010111000,
|
|
1011101010111010,
|
|
1011101010222000,
|
|
3333,
|
|
6008,
|
|
3,
|
|
#GOGOEND
|
|
,
|
|
,
|
|
,
|
|
#END
|
|
|
|
COURSE:Normal
|
|
LEVEL:3
|
|
BALLOON:11
|
|
SCOREINIT:900
|
|
SCOREDIFF:190
|
|
|
|
#START
|
|
,
|
|
|
|
11002200,
|
|
01010100,
|
|
11002200,
|
|
02020200,
|
|
11002200,
|
|
01010100,
|
|
11002200,
|
|
05000080,
|
|
11002200,
|
|
01010100,
|
|
11002200,
|
|
02020200,
|
|
11002200,
|
|
01010100,
|
|
11002200,
|
|
05000080,
|
|
11002200,
|
|
10010100,
|
|
11002200,
|
|
10010100,
|
|
10101011,
|
|
1110,
|
|
10101011,
|
|
1110,
|
|
10101011,
|
|
1110,
|
|
#MEASURE 8/4
|
|
3300330600008000,//28
|
|
|
|
#MEASURE 4/4
|
|
#GOGOSTART
|
|
1111,
|
|
10111000,
|
|
1212,
|
|
5008,
|
|
1000001110000000,
|
|
1000001110000000,
|
|
3333,
|
|
5008,
|
|
10101011,
|
|
10111000,
|
|
1212,
|
|
5008,
|
|
10101011,
|
|
10111000,
|
|
9009,
|
|
8,
|
|
10111011,
|
|
10111020,
|
|
10111011,
|
|
13,
|
|
10111011,
|
|
10111020,
|
|
3333,
|
|
6008,
|
|
3,
|
|
#GOGOEND
|
|
,
|
|
,
|
|
,
|
|
#END
|
|
|
|
COURSE:Easy
|
|
LEVEL:4
|
|
BALLOON:8
|
|
SCOREINIT:800
|
|
SCOREDIFF:160
|
|
|
|
#START
|
|
,
|
|
|
|
11001100,
|
|
01010100,
|
|
11001100,
|
|
02020200,
|
|
11001100,
|
|
01010100,
|
|
11001100,
|
|
05000080,//9
|
|
11001100,
|
|
01010100,
|
|
11001100,
|
|
02020200,
|
|
11001100,
|
|
01010100,
|
|
11001100,
|
|
05000080,//17
|
|
11001100,
|
|
00010100,
|
|
11001100,
|
|
00010100,
|
|
1110,
|
|
1210,
|
|
1110,
|
|
1210,
|
|
1212,
|
|
1210,
|
|
#MEASURE 8/4
|
|
3000300600008000,//28
|
|
|
|
#MEASURE 4/4
|
|
#GOGOSTART
|
|
1110,
|
|
1110,
|
|
1111,
|
|
1110,
|
|
1110,
|
|
1110,
|
|
3333,
|
|
5008,
|
|
1110,
|
|
1110,
|
|
1111,
|
|
1110,
|
|
1110,
|
|
1110,
|
|
9009,
|
|
8,
|
|
1111,
|
|
1120,
|
|
1111,
|
|
5008,
|
|
1111,
|
|
1120,
|
|
3333,
|
|
6008,
|
|
3,
|
|
#GOGOEND
|
|
,
|
|
,
|
|
,
|
|
#END
|