1186 lines
13 KiB
Plaintext
1186 lines
13 KiB
Plaintext
//TJADB Project
|
|
TITLE:Brave Sword, Braver Soul -TDM Chart-
|
|
TITLEJA:Brave Sword, Braver Soul
|
|
SUBTITLE:--Yoshihito Yano/SOULCALIBUR Ⅱ
|
|
SUBTITLEJA:TDM譜面 「ソウルキャリバーII」より
|
|
BPM:150
|
|
WAVE:Brave Sword Braver Soul.ogg
|
|
OFFSET:-7.480
|
|
DEMOSTART:51.480
|
|
|
|
COURSE:Oni
|
|
LEVEL:9
|
|
|
|
STYLE:SINGLE
|
|
BALLOON:4
|
|
SCOREINIT:
|
|
SCOREDIFF:
|
|
SCOREMODE:0
|
|
|
|
#START
|
|
0,
|
|
3000001010201011,
|
|
1010201010201011,
|
|
1010201010201011,
|
|
1020111020101020,
|
|
|
|
3011102011101022,
|
|
1010201010201022,
|
|
1010201011101010,
|
|
200000100000100100100000500000000000000008000000, //9
|
|
|
|
3010222020101011,
|
|
1010102010201011,
|
|
1010222020101011,
|
|
100000200000100100100000500000000000000008000000,
|
|
|
|
1011101020202011,
|
|
1020111020101022,
|
|
1010201011101010,
|
|
4114, //17
|
|
|
|
40112011,
|
|
20112011,
|
|
1110101022201010,
|
|
#BPMCHANGE 149
|
|
22214000,
|
|
|
|
30112011,
|
|
#BPMCHANGE 150
|
|
2000101020111010,
|
|
#BPMCHANGE 151
|
|
400000000000400000000000500000000000000008000000,
|
|
#BPMCHANGE 150
|
|
400000000000400000000000500000000000000008000000,
|
|
|
|
400000000000400000000000600000000000000008000000,
|
|
31111111,
|
|
30001122, //28
|
|
|
|
1011101030111010,
|
|
3011101010102011,
|
|
12121212,
|
|
700000008000100100200200,
|
|
|
|
12022202,
|
|
22022202,
|
|
12121210,
|
|
30041122, //36
|
|
|
|
1022202010202011,
|
|
1022202010101011,
|
|
12121212,
|
|
3022222010102020,
|
|
|
|
3022202010202011,
|
|
1022202030003000,
|
|
4334,
|
|
|
|
30110110,
|
|
1010001010222022,
|
|
10140140,
|
|
#BPMCHANGE 150.68
|
|
14014400, //47
|
|
|
|
#BPMCHANGE 149.32
|
|
1020102110102020,
|
|
#BPMCHANGE 150
|
|
12123300,
|
|
1020102110102020,
|
|
12123322,
|
|
|
|
1020102110102020,
|
|
12123322,
|
|
3030102110102020,
|
|
12123322, //55
|
|
|
|
4000222011101110,
|
|
2220222030302220,
|
|
3030222011101110,
|
|
2220222030300000,
|
|
|
|
1020102110102020,
|
|
1020102030302222,
|
|
#BPMCHANGE 150.96
|
|
10110150,
|
|
000008000000100000200000100000100000100000200000,
|
|
3,
|
|
0, //65
|
|
#END
|
|
|
|
STYLE:DOUBLE
|
|
BALLOON:
|
|
SCOREINIT:
|
|
SCOREDIFF:
|
|
SCOREMODE:0
|
|
|
|
#START P1
|
|
0,
|
|
3000003000201011,
|
|
10210210,
|
|
30030210,
|
|
30030022,
|
|
|
|
1011101000101110,
|
|
11011022,
|
|
30201021,
|
|
200000100000100000000000500000000000000008000000, //9
|
|
|
|
3250,
|
|
000000000000000000000000000000000000000008000000,
|
|
30000110,
|
|
100000200000100000000000500000000000000008000000,
|
|
|
|
30004440,
|
|
11011020,
|
|
21211030,
|
|
2114, //17
|
|
|
|
40202011,
|
|
10202011,
|
|
22202011,
|
|
#BPMCHANGE 149
|
|
22104000,
|
|
|
|
20112010,
|
|
#BPMCHANGE 150
|
|
2000101020111010,
|
|
#BPMCHANGE 151
|
|
000000000000000000000000500000000000000008000000,
|
|
#BPMCHANGE 150
|
|
4400,
|
|
|
|
000000000000000000000000500000000000000008000000,
|
|
11111111,
|
|
30001122, //28
|
|
|
|
11011101,
|
|
11011122,
|
|
10101101,
|
|
11010000,
|
|
|
|
30200220,
|
|
02200222,
|
|
1111,
|
|
30030030, //36
|
|
|
|
30200220,
|
|
02200222,
|
|
02020222,
|
|
000000200000000002000001000001000002000002000000,
|
|
|
|
1000000010000011,
|
|
1033,
|
|
4334,
|
|
|
|
30030030,
|
|
0030000010111000,
|
|
10120120,
|
|
#BPMCHANGE 150.68
|
|
12002200, //47
|
|
|
|
#BPMCHANGE 149.32
|
|
12121120,
|
|
#BPMCHANGE 150
|
|
10103300,
|
|
12121122,
|
|
12100000,
|
|
|
|
12121120,
|
|
10103300,
|
|
12121122,
|
|
12120000, //55
|
|
|
|
3500,
|
|
000000000000000008000000300000300000000000000000,
|
|
000222222222,
|
|
111111111100,
|
|
|
|
33000000,
|
|
12121122,
|
|
#BPMCHANGE 150.96
|
|
10210210,
|
|
00121210,
|
|
3,
|
|
0, //65
|
|
#END
|
|
|
|
BALLOON:
|
|
SCOREINIT:
|
|
SCOREDIFF:
|
|
SCOREMODE:0
|
|
|
|
#START P2
|
|
0,
|
|
30030200,
|
|
3000003000201011,
|
|
1000201000201011,
|
|
100000100000100100100000500000000000000008000000,
|
|
|
|
30004440,
|
|
11011020,
|
|
11211030,
|
|
200000000000100000000000500000000000000008000000, //9
|
|
|
|
30000110,
|
|
12101011,
|
|
30205000,
|
|
000000000000000000000000000000000000000008000000,
|
|
|
|
1011101000101110,
|
|
11011022,
|
|
30201021,
|
|
2114, //17
|
|
|
|
40111020,
|
|
20111020,
|
|
20112220,
|
|
#BPMCHANGE 149
|
|
22104000,
|
|
|
|
30102011,
|
|
#BPMCHANGE 150
|
|
2000100020111010,
|
|
#BPMCHANGE 151
|
|
2200,
|
|
#BPMCHANGE 150
|
|
000000000000000000000000500000000000000008000000,
|
|
|
|
4400,
|
|
11111111,
|
|
3, //28
|
|
|
|
30200220,
|
|
02200222,
|
|
02020222,
|
|
02021122,
|
|
|
|
11011101,
|
|
11011122,
|
|
1111,
|
|
30001122, //36
|
|
|
|
1000200010000011,
|
|
1000000010201011,
|
|
1111,
|
|
500000000000000008000000000000000000000000000000,
|
|
|
|
30200220,
|
|
02203030,
|
|
40303022,
|
|
10120120,
|
|
|
|
1020000010111000,
|
|
30030030,
|
|
#BPMCHANGE 150.68
|
|
03002200, //47
|
|
|
|
#BPMCHANGE 149.32
|
|
12121122,
|
|
#BPMCHANGE 150
|
|
12100000,
|
|
12121120,
|
|
10103300,
|
|
|
|
12121122,
|
|
12120000,
|
|
12121120,
|
|
10103300, //55
|
|
|
|
000222222222,
|
|
111111111100,
|
|
33500000,
|
|
000000000000000008000000300000300000000000000000,
|
|
|
|
12121122,
|
|
00003300,
|
|
#BPMCHANGE 150.96
|
|
10210210,
|
|
00121210,
|
|
3,
|
|
0, //65
|
|
#END
|
|
|
|
|
|
COURSE:Hard
|
|
LEVEL:4
|
|
|
|
STYLE:SINGLE
|
|
BALLOON:
|
|
SCOREINIT:590
|
|
SCOREDIFF:140
|
|
SCOREMODE:1
|
|
|
|
#START
|
|
0,
|
|
3000001000201011,
|
|
1000201000201011,
|
|
1000201000201011,
|
|
100000100000100100100000500000000000000008000000,
|
|
|
|
1011101020202000,
|
|
11011022,
|
|
11211021,
|
|
200000100000100000000000500000000000000008000000, //9
|
|
|
|
30202110,
|
|
12101011,
|
|
00202110,
|
|
100000200000100000000000500000000000000008000000,
|
|
|
|
1011101020202000,
|
|
11011022,
|
|
11211021,
|
|
2114, //17
|
|
|
|
40112011,
|
|
20112011,
|
|
22112011,
|
|
#BPMCHANGE 149
|
|
22104000,
|
|
|
|
30112011,
|
|
#BPMCHANGE 150
|
|
2000101020111010,
|
|
#BPMCHANGE 151
|
|
200000000000200000000000500000000000000008000000,
|
|
#BPMCHANGE 150
|
|
400000000000400000000000500000000000000008000000,
|
|
|
|
400000000000400000000000500000000000000008000000,
|
|
11111111,
|
|
30001122, //28
|
|
|
|
11011101,
|
|
11011122,
|
|
10101101,
|
|
11011122,
|
|
|
|
11011101,
|
|
11011101,
|
|
10101101,
|
|
20021122, //36
|
|
|
|
1000000010000011,
|
|
1000000010201011,
|
|
1111,
|
|
10001122,
|
|
|
|
1000000010000011,
|
|
1033,
|
|
4334,
|
|
|
|
30110110,
|
|
11012220,
|
|
10120120,
|
|
#BPMCHANGE 150.68
|
|
12012200, //47
|
|
|
|
#BPMCHANGE 149.32
|
|
12121122,
|
|
#BPMCHANGE 150
|
|
10003300,
|
|
12121122,
|
|
10003300,
|
|
|
|
12121122,
|
|
12103300,
|
|
12121122,
|
|
12103300, //55
|
|
|
|
300222222222,
|
|
111111111100,
|
|
000222222222,
|
|
111111111100,
|
|
|
|
12121122,
|
|
12123300,
|
|
#BPMCHANGE 150.96
|
|
10210210,
|
|
00121210,
|
|
3,
|
|
0, //65
|
|
#END
|
|
|
|
STYLE:DOUBLE
|
|
BALLOON:
|
|
SCOREINIT:740
|
|
SCOREDIFF:180
|
|
SCOREMODE:1
|
|
|
|
#START P1
|
|
0,
|
|
3000003000201011,
|
|
10210210,
|
|
30030210,
|
|
30030022,
|
|
|
|
1011101000101110,
|
|
11011022,
|
|
30201021,
|
|
200000100000100000000000500000000000000008000000, //9
|
|
|
|
3250,
|
|
000000000000000000000000000000000000000008000000,
|
|
30000110,
|
|
100000200000100000000000500000000000000008000000,
|
|
|
|
30004440,
|
|
11011020,
|
|
21211030,
|
|
2114, //17
|
|
|
|
40202011,
|
|
10202011,
|
|
22202011,
|
|
#BPMCHANGE 149
|
|
22104000,
|
|
|
|
20112010,
|
|
#BPMCHANGE 150
|
|
2000101020111010,
|
|
#BPMCHANGE 151
|
|
000000000000000000000000500000000000000008000000,
|
|
#BPMCHANGE 150
|
|
4400,
|
|
|
|
000000000000000000000000500000000000000008000000,
|
|
11111111,
|
|
30001122, //28
|
|
|
|
11011101,
|
|
11011122,
|
|
10101101,
|
|
11010000,
|
|
|
|
30200220,
|
|
02200222,
|
|
1111,
|
|
30030030, //36
|
|
|
|
30200220,
|
|
02200222,
|
|
02020222,
|
|
000000200000000002000001000001000002000002000000,
|
|
|
|
1000000010000011,
|
|
1033,
|
|
4334,
|
|
|
|
30030030,
|
|
0030000010111000,
|
|
10120120,
|
|
#BPMCHANGE 150.68
|
|
12002200, //47
|
|
|
|
#BPMCHANGE 149.32
|
|
12121120,
|
|
#BPMCHANGE 150
|
|
10103300,
|
|
12121122,
|
|
12100000,
|
|
|
|
12121120,
|
|
10103300,
|
|
12121122,
|
|
12120000, //55
|
|
|
|
3500,
|
|
000000000000000008000000300000300000000000000000,
|
|
000222222222,
|
|
111111111100,
|
|
|
|
33000000,
|
|
12121122,
|
|
#BPMCHANGE 150.96
|
|
10210210,
|
|
00121210,
|
|
3,
|
|
0, //65
|
|
#END
|
|
|
|
BALLOON:
|
|
SCOREINIT:740
|
|
SCOREDIFF:180
|
|
SCOREMODE:1
|
|
|
|
#START P2
|
|
0,
|
|
30030200,
|
|
3000003000201011,
|
|
1000201000201011,
|
|
100000100000100100100000500000000000000008000000,
|
|
|
|
30004440,
|
|
11011020,
|
|
11211030,
|
|
200000000000100000000000500000000000000008000000, //9
|
|
|
|
30000110,
|
|
12101011,
|
|
30205000,
|
|
000000000000000000000000000000000000000008000000,
|
|
|
|
1011101000101110,
|
|
11011022,
|
|
30201021,
|
|
2114, //17
|
|
|
|
40111020,
|
|
20111020,
|
|
20112220,
|
|
#BPMCHANGE 149
|
|
22104000,
|
|
|
|
30102011,
|
|
#BPMCHANGE 150
|
|
2000100020111010,
|
|
#BPMCHANGE 151
|
|
2200,
|
|
#BPMCHANGE 150
|
|
000000000000000000000000500000000000000008000000,
|
|
|
|
4400,
|
|
11111111,
|
|
3, //28
|
|
|
|
30200220,
|
|
02200222,
|
|
02020222,
|
|
02021122,
|
|
|
|
11011101,
|
|
11011122,
|
|
1111,
|
|
30001122, //36
|
|
|
|
1000200010000011,
|
|
1000000010201011,
|
|
1111,
|
|
500000000000000008000000000000000000000000000000,
|
|
|
|
30200220,
|
|
02203030,
|
|
40303022,
|
|
10120120,
|
|
|
|
1020000010111000,
|
|
30030030,
|
|
#BPMCHANGE 150.68
|
|
03002200, //47
|
|
|
|
#BPMCHANGE 149.32
|
|
12121122,
|
|
#BPMCHANGE 150
|
|
12100000,
|
|
12121120,
|
|
10103300,
|
|
|
|
12121122,
|
|
12120000,
|
|
12121120,
|
|
10103300, //55
|
|
|
|
000222222222,
|
|
111111111100,
|
|
33500000,
|
|
000000000000000008000000300000300000000000000000,
|
|
|
|
12121122,
|
|
00003300,
|
|
#BPMCHANGE 150.96
|
|
10210210,
|
|
00121210,
|
|
3,
|
|
0, //65
|
|
#END
|
|
|
|
|
|
COURSE:Normal
|
|
LEVEL:2
|
|
|
|
STYLE:SINGLE
|
|
BALLOON:
|
|
SCOREINIT:850
|
|
SCOREDIFF:230
|
|
SCOREMODE:1
|
|
|
|
#START
|
|
0,
|
|
30030000,
|
|
11101010,
|
|
30030000,
|
|
11101000,
|
|
|
|
1011,
|
|
10111000,
|
|
3110,
|
|
3110, //9
|
|
|
|
30000100,
|
|
1111,
|
|
00000100,
|
|
100000100000100000000000500000000000000008000000,
|
|
|
|
0112,
|
|
11011000,
|
|
3110,
|
|
3004, //17
|
|
|
|
41,
|
|
11,
|
|
1110,
|
|
#BPMCHANGE 149
|
|
11101000,
|
|
|
|
10111000,
|
|
#BPMCHANGE 150
|
|
10111000,
|
|
#BPMCHANGE 151
|
|
200000000000200000000000500000000000000008000000,
|
|
#BPMCHANGE 150
|
|
200000000000200000000000500000000000000008000000,
|
|
|
|
400000000000400000000000500000000000000008000000,
|
|
1111,
|
|
30001110, //28
|
|
|
|
11,
|
|
10001110,
|
|
1011,
|
|
500000000000000008000000100000100000100000000000,
|
|
|
|
11,
|
|
500000000000000000000000000000000008000000000000,
|
|
1112,
|
|
30030030, //36
|
|
|
|
31,
|
|
1011,
|
|
1011,
|
|
10001110,
|
|
|
|
11,
|
|
1011,
|
|
2112,
|
|
|
|
10010010,
|
|
01004000,
|
|
10010010,
|
|
#BPMCHANGE 150.68
|
|
01001100, //47
|
|
|
|
#BPMCHANGE 149.32
|
|
11101020,
|
|
#BPMCHANGE 150
|
|
10001100,
|
|
11101020,
|
|
10001100,
|
|
|
|
11101020,
|
|
11101100,
|
|
11101020,
|
|
11101100, //55
|
|
|
|
300222500000,
|
|
000000000008000000000000100000100000000000000000,
|
|
300222500000,
|
|
000000000008000000000000100000100000000000000000,
|
|
|
|
11101020,
|
|
11101100,
|
|
#BPMCHANGE 150.96
|
|
10010010,
|
|
0111,
|
|
3,
|
|
0, //65
|
|
#END
|
|
|
|
STYLE:DOUBLE
|
|
BALLOON:
|
|
SCOREINIT:950
|
|
SCOREDIFF:270
|
|
SCOREMODE:1
|
|
|
|
#START P1
|
|
0,
|
|
30030020,
|
|
11101010,
|
|
30030000,
|
|
30030000,
|
|
|
|
1110,
|
|
10111020,
|
|
0220,
|
|
3110, //9
|
|
|
|
3150,
|
|
000000000000000000000008000000000000000000000000,
|
|
00000100,
|
|
1110,
|
|
|
|
1022,
|
|
21,
|
|
3112,
|
|
0224, //17
|
|
|
|
41,
|
|
01,
|
|
1100,
|
|
#BPMCHANGE 149
|
|
11101000,
|
|
|
|
10001011,
|
|
#BPMCHANGE 150
|
|
10001011,
|
|
#BPMCHANGE 151
|
|
100000000000000000000000500000000000000008000000,
|
|
#BPMCHANGE 150
|
|
200000000000200000000000500000000000000008000000,
|
|
|
|
400000000000400000000000500000000000000008000000,
|
|
1111,
|
|
30001110, //28
|
|
|
|
11,
|
|
1011,
|
|
1011,
|
|
500000000000000008000000000000000000200000000000,
|
|
|
|
0202,
|
|
02200020,
|
|
1112,
|
|
30030030, //36
|
|
|
|
3202,
|
|
02200020,
|
|
0202,
|
|
22001110,
|
|
|
|
11,
|
|
500000000000000008000000000000000000200000000000,
|
|
2022,
|
|
|
|
10110110,
|
|
11011000,
|
|
30030030,
|
|
#BPMCHANGE 150.68
|
|
03002200, //47
|
|
|
|
#BPMCHANGE 149.32
|
|
11002020,
|
|
#BPMCHANGE 150
|
|
10001100,
|
|
11101000,
|
|
11100000,
|
|
|
|
11002020,
|
|
10001100,
|
|
11101000,
|
|
11100000, //55
|
|
|
|
3,
|
|
00003300,
|
|
000222500000,
|
|
000000000008000000000000000000000000000000000000,
|
|
|
|
33000000,
|
|
11101020,
|
|
#BPMCHANGE 150.96
|
|
10110110,
|
|
0111,
|
|
3,
|
|
0, //65
|
|
#END
|
|
|
|
BALLOON:
|
|
SCOREINIT:950
|
|
SCOREDIFF:270
|
|
SCOREMODE:1
|
|
|
|
#START P2
|
|
0,
|
|
30030000,
|
|
30030000,
|
|
30030020,
|
|
11101000,
|
|
|
|
1022,
|
|
21,
|
|
3112,
|
|
0220, //9
|
|
|
|
30000100,
|
|
1111,
|
|
0150,
|
|
000000000000000000000008000000000000000000000000,
|
|
|
|
1110,
|
|
10111020,
|
|
0220,
|
|
3114, //17
|
|
|
|
4,
|
|
1,
|
|
0011,
|
|
#BPMCHANGE 149
|
|
03,
|
|
|
|
10111000,
|
|
#BPMCHANGE 150
|
|
10111000,
|
|
#BPMCHANGE 151
|
|
2200,
|
|
#BPMCHANGE 150
|
|
000000000000000000000000500000000000000008000000,
|
|
|
|
400000000000400000000000500000000000000008000000,
|
|
1111,
|
|
3002, //28
|
|
|
|
0202,
|
|
02200020,
|
|
0202,
|
|
22001110,
|
|
|
|
11,
|
|
100000000000500000000000000000000008000000000000,
|
|
1112,
|
|
30001110, //36
|
|
|
|
11,
|
|
1011,
|
|
1011,
|
|
500000000000000000000008000000000000200000000000,
|
|
|
|
0202,
|
|
22001010,
|
|
0110,
|
|
|
|
30030030,
|
|
03002020,
|
|
10110110,
|
|
#BPMCHANGE 150.68
|
|
11002200, //47
|
|
|
|
#BPMCHANGE 149.32
|
|
11101000,
|
|
#BPMCHANGE 150
|
|
11100000,
|
|
11002020,
|
|
10001100,
|
|
|
|
11101000,
|
|
11100000,
|
|
11002020,
|
|
10001100, //55
|
|
|
|
000222500000,
|
|
000000000008000000000000000000000000000000000000,
|
|
33000000,
|
|
00003300,
|
|
|
|
11101020,
|
|
00003300,
|
|
#BPMCHANGE 150.96
|
|
10110110,
|
|
0111,
|
|
3,
|
|
0, //65
|
|
#END
|
|
|
|
|
|
COURSE:Easy
|
|
LEVEL:3
|
|
|
|
STYLE:SINGLE
|
|
BALLOON:
|
|
SCOREINIT:930
|
|
SCOREDIFF:230
|
|
SCOREMODE:1
|
|
|
|
#START
|
|
0,
|
|
30030000,
|
|
1110,
|
|
30030000,
|
|
1110,
|
|
|
|
11,
|
|
1110,
|
|
31,
|
|
32, //9
|
|
|
|
30000100,
|
|
1110,
|
|
00000100,
|
|
100000000000100000000000500000000000000000000008,
|
|
|
|
0101,
|
|
0110,
|
|
3,
|
|
3003, //17
|
|
|
|
31,
|
|
11,
|
|
12,
|
|
#BPMCHANGE 149
|
|
1110,
|
|
|
|
11,
|
|
#BPMCHANGE 150
|
|
11,
|
|
#BPMCHANGE 151
|
|
2200,
|
|
#BPMCHANGE 150
|
|
2200,
|
|
|
|
4400,
|
|
500000000000000000000000000000000008000000000000,
|
|
3011, //28
|
|
|
|
#GOGOSTART
|
|
11,
|
|
1011,
|
|
11,
|
|
1011,
|
|
|
|
11,
|
|
500000000000000000000000000000000008000000000000,
|
|
1111,
|
|
1011, //36
|
|
|
|
11,
|
|
1011,
|
|
11,
|
|
1011,
|
|
|
|
11,
|
|
1001,
|
|
0201,
|
|
|
|
10010010,
|
|
01000000,
|
|
10010010,
|
|
#BPMCHANGE 150.68
|
|
01003000, //47
|
|
#GOGOEND
|
|
|
|
#BPMCHANGE 149.32
|
|
1110,
|
|
#BPMCHANGE 150
|
|
10001100,
|
|
1120,
|
|
10001100,
|
|
|
|
1110,
|
|
10001100,
|
|
1120,
|
|
10001100, //55
|
|
|
|
1500,
|
|
000000000008000000000000100000100000000000000000,
|
|
11500000,
|
|
000000000008000000000000100000100000000000000000,
|
|
|
|
1120,
|
|
1120,
|
|
#BPMCHANGE 150.96
|
|
10010010,
|
|
0111,
|
|
3,
|
|
0, //65
|
|
#END
|
|
|
|
STYLE:DOUBLE
|
|
BALLOON:
|
|
SCOREINIT:980
|
|
SCOREDIFF:320
|
|
SCOREMODE:1
|
|
|
|
#START P1
|
|
0,
|
|
30030000,
|
|
1110,
|
|
30030020,
|
|
0220,
|
|
|
|
1100,
|
|
1110,
|
|
1110,
|
|
31, //9
|
|
|
|
0250,
|
|
000000000000000000000000000008000000000000000000,
|
|
30000100,
|
|
1110,
|
|
|
|
1011,
|
|
11,
|
|
31,
|
|
2004, //17
|
|
|
|
41,
|
|
1011,
|
|
11,
|
|
#BPMCHANGE 149
|
|
1110,
|
|
|
|
12,
|
|
#BPMCHANGE 150
|
|
10111000,
|
|
#BPMCHANGE 151
|
|
0,
|
|
#BPMCHANGE 150
|
|
200000000000200000000000500000000000000000000008,
|
|
|
|
000000000000000000000000500000000000000000000008,
|
|
0101,
|
|
3011, //28
|
|
|
|
11,
|
|
1011,
|
|
11,
|
|
500000000000000008000000000000000000000000000000,
|
|
|
|
0202,
|
|
0202,
|
|
0201,
|
|
1011, //36
|
|
|
|
11,
|
|
1011,
|
|
11,
|
|
500000000000000000000008000000000000000000000000,
|
|
|
|
0202,
|
|
0011,
|
|
1,
|
|
|
|
10010010,
|
|
01002020,
|
|
0,
|
|
#BPMCHANGE 150.68
|
|
00001100, //47
|
|
|
|
#BPMCHANGE 149.32
|
|
1110,
|
|
#BPMCHANGE 150
|
|
10001100,
|
|
1011,
|
|
10001100,
|
|
|
|
1120,
|
|
10001100,
|
|
1011,
|
|
20001100, //55
|
|
|
|
32,
|
|
11000000,
|
|
0500,
|
|
000000000008000000000000100000100000000000000000,
|
|
|
|
1120,
|
|
10001100,
|
|
#BPMCHANGE 150.96
|
|
10010010,
|
|
0111,
|
|
3,
|
|
0, //65
|
|
#END
|
|
|
|
BALLOON:
|
|
SCOREINIT:980
|
|
SCOREDIFF:320
|
|
SCOREMODE:1
|
|
|
|
#START P2
|
|
0,
|
|
30030020,
|
|
0220,
|
|
30030000,
|
|
1110,
|
|
|
|
2022,
|
|
22,
|
|
31,
|
|
1110, //9
|
|
|
|
30000100,
|
|
1110,
|
|
0250,
|
|
000000000000000000000000000008000000000000000000,
|
|
|
|
1110,
|
|
1110,
|
|
22,
|
|
31, //17
|
|
|
|
2,
|
|
11,
|
|
1011,
|
|
#BPMCHANGE 149
|
|
11,
|
|
|
|
10111000,
|
|
#BPMCHANGE 150
|
|
12,
|
|
#BPMCHANGE 151
|
|
200000000000200000000000500000000000000000000008,
|
|
#BPMCHANGE 150
|
|
0,
|
|
|
|
200000000000200000000000500000000000000000000008,
|
|
0101,
|
|
3, //28
|
|
|
|
0202,
|
|
0202,
|
|
0202,
|
|
0011,
|
|
|
|
11,
|
|
500000000000000000000000000000000008000000000000,
|
|
1110,
|
|
30030030, //36
|
|
|
|
0202,
|
|
0202,
|
|
0202,
|
|
0011,
|
|
|
|
11,
|
|
500000000000000000000008000000000000000000000000,
|
|
0111,
|
|
|
|
0,
|
|
0,
|
|
10010010,
|
|
#BPMCHANGE 150.68
|
|
01001100, //47
|
|
|
|
#BPMCHANGE 149.32
|
|
1011,
|
|
#BPMCHANGE 150
|
|
10001100,
|
|
1110,
|
|
10001100,
|
|
|
|
0011,
|
|
20001100,
|
|
1120,
|
|
10001100, //55
|
|
|
|
0500,
|
|
000000000008000000000000100000100000000000000000,
|
|
11000000,
|
|
11000000,
|
|
|
|
1120,
|
|
10001100,
|
|
#BPMCHANGE 150.96
|
|
10010010,
|
|
0111,
|
|
3,
|
|
0, //65
|
|
#END |