Files
2025-06-01 22:15:31 -04:00

338 lines
12 KiB
Plaintext

//TJADB Project
TITLE:Bravoman
TITLEJA:ベラボーマン
SUBTITLE:--Norio Nakagata feat. Hideyuki Umezu/Bravoman
BPM:142.329
WAVE:Bravoman.ogg
OFFSET:-12.782
DEMOSTART:19.947
COURSE:Oni
LEVEL:4
BALLOON:15,20,30,12,12,12
#START
1000000020020000,
1000000200200000,
100000000000000000000000200000000200000000000000,
100200000200000000000000000200000200200000000000,
000000000000100000000000100000000100000000100000,
500000000000000000000000000000000008000000000000,
000000000000100000000000100000000100000000100000,
700000000000000000000000000000000000000000000000,
000000000000000000000000000000000000800000000000,
300000000000000000000000100000000000100000000000,
100000000000200000000000100000100000200000000000,
300000000000000000000000100000000000100000000000,
100000000000200000000000100000100000200000000000,
300000000000000000000000100000000000100000000000,
100000000000200000000000100000100000200000000000,
300000000000000000000000100000000000100000000000,
500000000000000008000000100000100000200000000000,
100000000000100000000000100000100000200000000000,
100000000000100000000000100000100000200000100100,
100000100000200000100100100000100000200000100100,
100000100000200000200000100000100000200000000000,
100000000000100000000000100000100000200000000000,
100000000000100000000000100000100000200000100100,
100000100000200000100100100000100000200000100100,
100000100000200000200000200200200000200000000000,
100000000000100000000000100000100100100000100000,
100000100100100000100000100000100000100000000000,
100000000000100000000000100000100100100000100000,
100000100100100000100000100000100000100000000000,
300000000000000000100100100000000000200000000000,
300000000000000000100100100000200000200000000000,
300000000300000000300000000000000000200000000000,
300000000300000000300000000000200000200000000000,
300000000300000000300000000000000000200000000000,
300000000300000000300000000000200200200000200000,
200000000000100000000000100000000100000000100000,
500000000000000000000000000000000008000000000000,
200000000000100000000000100000000100000000100000,
700000000000000000000000000000000000000000000000,
000000000000000000000000000000000000800000000000,
300000000000000000000000100000000000100000000000,
100000000000200000000000100000100000200000000000,
300000000000000000000000100000000000100000000000,
100000000000200000000000100000100000200000000000,
300000000000000000000000100000000000100000000000,
100000000000200000000000100000100000200000000000,
300000000000000000000000100000000000100000000000,
500000000000000008000000100000100000200000000000,
100000000000100000000000100000100000200000000000,
100000000000100000000000100000100000200000100100,
100000100000200000100100100000100000200000100100,
100000100000200000200000100000100000200000000000,
100000000000100000000000100000100000200000000000,
100000000000100000000000100000100000200000100100,
100000100000200000100100100000100000200000100100,
100000100000200000200000200200200000200000000000,
100000000000100000000000100000100100100000100000,
100000100100100000100000100000100000100000100100,
100000000000100000000000100000100100100000100000,
100000100100100000100000100000100000100000000000,
300000000000000000100100100000200000200000000000,
300000000000000000100100100000200200200000200000,
300000000300000000300000000000100000200000000000,
300000000300000000300000000000200000200000000000,
300000000300000000300000000000100000200000000000,
300000000300000000300000000000200200200000200000,
200000000000100000000000100000000100000000100000,
#BPMCHANGE 142
500000000000000000000000000000000008000000000000,
#BPMCHANGE 142.7
200000000000100000000000100000000100000000100000,
#BPMCHANGE 140.5
700000000000
#BPMCHANGE 127.5
000000000000
#BPMCHANGE 114.5
000000000000
#BPMCHANGE 98.5
000000000000,
#BPMCHANGE 85.25
00000000
#BPMCHANGE 71.5
00000000
#BPMCHANGE 58.4
80000000
#BPMCHANGE 56.7
10010010,
#BARLINEOFF
#MEASURE 1/4
,
#BARLINEON
#MEASURE 4/4
#BPMCHANGE 142
700000000000000000000000000000000000000000800000,
700000000000000000000000000000000000000000800000,
700000000000000000000000000000000000000000800000,
#END
COURSE:Hard
LEVEL:5
SCOREINIT:660
SCOREDIFF:150
#START
100000000000000000000000200000000200000000000000,
100000000000000000000000200000000200000000000000,
100000000000000000000000200000000200000000000000,
100200000200000000000000000200000200200000000000,
000000000000100000000000100000000100000000100000,
500000000000000000000000000000000008000000000000,
000000000000100000000000100000000100000000100000,
700000000000000000000000000000000000000000000000,
000000000000000000000000000000000000800000000000,
300000000000000000000000100000000000100000000000,
100000000000200000000000100000100000200000000000,
300000000000000000000000100000000000100000000000,
100000000000200000000000100000100000200000000000,
300000000000000000000000100000000000100000000000,
100000000000200000000000100000100000200000000000,
300000000000000000000000100000000000100000000000,
500000000000000008000000100000100000200000000000,
100000000000100000000000100000100000200000000000,
100000000000100000000000100000100000200000100100,
100000100000200000100100100000100000200000100100,
100000100000200000200000100000100000200000000000,
100000000000100000000000100000100000200000000000,
100000000000100000000000100000100000200000100100,
100000100000200000100100100000100000200000100100,
100000100000200000200000200200200000200000000000,
100000000000100000000000100000100100100000100000,
100000100100100000100000100000100000100000000000,
100000000000100000000000100000100100100000100000,
100000100100100000100000100000100000100000000000,
300000000000000000100100100000000000200000000000,
300000000000000000100100100000200000200000000000,
300000000300000000300000000000000000200000000000,
300000000300000000300000000000200000200000000000,
300000000300000000300000000000000000200000000000,
300000000300000000300000000000200200200000200000,
200000000000100000000000100000000100000000100000,
500000000000000000000000000000000008000000000000,
200000000000100000000000100000000100000000100000,
700000000000000000000000000000000000000000000000,
000000000000000000000000000000000000800000000000,
300000000000000000000000100000000000100000000000,
100000000000200000000000100000100000200000000000,
300000000000000000000000100000000000100000000000,
100000000000200000000000100000100000200000000000,
300000000000000000000000100000000000100000000000,
100000000000200000000000100000100000200000000000,
300000000000000000000000100000000000100000000000,
500000000000000008000000100000100000200000000000,
100000000000100000000000100000100000200000000000,
100000000000100000000000100000100000200000100100,
100000100000200000100100100000100000200000100100,
100000100000200000200000100000100000200000000000,
100000000000100000000000100000100000200000000000,
100000000000100000000000100000100000200000100100,
100000100000200000100100100000100000200000100100,
100000100000200000200000200200200000200000000000,
100000000000100000000000100000100100100000100000,
100000100100100000100000100000100000100000100100,
100000000000100000000000100000100100100000100000,
100000100100100000100000100000100000100000000000,
300000000000000000100100100000200000200000000000,
300000000000000000100100100000200200200000200000,
300000000300000000300000000000100000200000000000,
300000000300000000300000000000200000200000000000,
300000000300000000300000000000100000200000000000,
300000000300000000300000000000200200200000200000,
200000000000100000000000100000000100000000100000,
#BPMCHANGE 142
500000000000000000000000000000000008000000000000,
#BPMCHANGE 142.7
200000000000100000000000100000000100000000100000,
#BPMCHANGE 140.5
700000000000
#BPMCHANGE 127.5
000000000000
#BPMCHANGE 114.5
000000000000
#BPMCHANGE 98.5
000000000000,
#BPMCHANGE 85.25
00000000
#BPMCHANGE 71.5
00000000
#BPMCHANGE 58.4
80000000
#BPMCHANGE 56.7
10010010,
#BARLINEOFF
#MEASURE 1/4
,
#BARLINEON
#MEASURE 4/4
#BPMCHANGE 142
700000000000000000000000000000000000000000800000,
700000000000000000000000000000000000000000800000,
700000000000000000000000000000000000000000800000,
#END
COURSE:Normal
LEVEL:4
SCOREINIT:890
SCOREDIFF:240
#START
100000000000000000000000100000000000100000000000,
100000000000000000000000000000000000000000000000,
100000000000000000000000100000000000100000000000,
100000000000000000000000000000000000000000000000,
000000000000100000000000100000000100000000100000,
500000000000000000000000000000000800000000000000,
000000000000100000000000100000000100000000100000,
500000000000000000000000000000000000000000000000,
000000000000000000000800000000000000000000000000,
300000000000000000000000100000000000100000000000,
100000000000200000000000100000000000200000000000,
300000000000000000000000100000000000100000000000,
100000000000200000000000100000000000200000000000,
300000000000000000000000100000000000100000000000,
100000000000200000000000100000000000200000000000,
300000000000000000000000100000000000100000000000,
500000000000000000000000000000800000000000000000,
100000000000200000000000000000000000200000000000,
100000000000200000000000000000000000200000000000,
100000000000200000000000100000000000200000000000,
100000000000100000000000100000000000000000000000,
100000000000200000000000000000000000200000000000,
100000000000200000000000000000000000200000000000,
100000000000200000000000100000000000200000000000,
100000000000100000000000100000000000000000000000,
100000000000000000000000200000000000200000000000,
100000000000000000000000200000000000000000000000,
100000000000000000000000200000000000200000000000,
100000000000000000000000200000000000000000000000,
100000000000000000100100100000000000000000000000,
100000000000000000100100100000000000100000000000,
300000000300000000300000000000000000000000000000,
300000000300000000300000000000000000000000000000,
300000000300000000300000000000000000000000000000,
300000000300000000300000000000000000000000000000,
000000000000100000000000100000000100000000100000,
500000000000000000000000000000000800000000000000,
000000000000100000000000100000000100000000100000,
500000000000000000000000000000000000000000000000,
000000000000000000000800000000000000000000000000,
300000000000000000000000100000000000100000000000,
100000000000200000000000100000100000200000000000,
300000000000000000000000100000000000100000000000,
100000000000200000000000100000100000200000000000,
300000000000000000000000100000000000100000000000,
100000000000200000000000100000100000200000000000,
300000000000000000000000100000000000100000000000,
500000000000000000000000000000800000000000000000,
100000000000200000000000000000000000200000000000,
100000000000200000000000000000000000200000000000,
100000000000200000000000100000000000200000000000,
100000000000100000000000100000000000000000000000,
100000000000200000000000000000000000200000000000,
100000000000200000000000000000000000200000000000,
100000000000200000000000100000000000200000000000,
100000000000100000000000100000000000000000000000,
100000000000000000000000200000000000200000000000,
100000000000200000000000200000200000200000000000,
100000000000000000000000200000000000200000000000,
100000000000200000000000200000200000200000000000,
100000000000000000100100100000000000000000000000,
100000000000000000100100100000000000100000000000,
300000000300000000300000000000000000000000000000,
300000000300000000300000000000000000000000000000,
300000000300000000300000000000000000000000000000,
300000000300000000300000000000000000000000000000,
000000000000100000000000100000000100000000100000,
#BPMCHANGE 142
500000000000000000000000000000000008000000000000,
#BPMCHANGE 142.7
000000000000100000000000100000000100000000100000,
#BPMCHANGE 140.5
500000000000
#BPMCHANGE 127.5
000000000000
#BPMCHANGE 114.5
000000000000
#BPMCHANGE 98.5
000000000000,
#BPMCHANGE 85.25
00000000
#BPMCHANGE 71.5
00000000
#BPMCHANGE 58.4
80000000
#BPMCHANGE 56.7
10010010,
#BARLINEOFF
#MEASURE 1/4
,
#BARLINEON
#MEASURE 4/4
#BPMCHANGE 142
500000000000000000000000000000000000000000000000,
000000000000000000000000000000000000000000000000,
000000000000000000000000000000000000000000800000,
#END