Files

374 lines
4.8 KiB
Plaintext

//TJADB Project
TITLE:CHANGE❢
TITLEJA:CHANGE!!!!
SUBTITLE:--Tetsuya Uchida feat. 765PRO ALLSTARS/THE iDOLM@STER 2
SUBTITLEJA:
BPM:170
WAVE:CHANGE.ogg
OFFSET:-1.485
DEMOSTART:57.387
SCENEPRESET:IMAS
COURSE:Oni
LEVEL:7
BALLOON:
SCOREINIT:670,2200
SCOREDIFF:183
#START
#GOGOSTART
2222,
2222,
2222,
2000200020002022,
2000200020002022,
2022202220222000,
30003303,
0000000000002210, //8
1010201110102022,
1010201210112222,
1010201110102022,
1010201210102020,
33030306,
000000000000000000000000000008000000000000100100, //14
#GOGOEND
1010202010102210,
1010201010112011,
1010202010102210,
1010201010112011,
1000400040222030,
0022201011102011,
11210211,
21030030, //22
1010202010102210,
1010201010112021,
1010202010102210,
1010201010112020,
30430430,
0000002020202011,
1000201110002011,
1122, //30
10211040,
1000201010004011,
10211040,
3000300030004011,
1000111000111000,
0334,
6,
000000000000000000000000000008000000000000000000,
33,
4000000000300011, //40
#GOGOSTART
1010202210102011,
1010201110102050,
000000000000000000000000000008000000000000300000,
3000303000300011,
1010202210102011,
1010201110222010,
500000000000000000000000000008000000000000100000,
0010404000300011, //48
1010202210102011,
1010201110102050,
000000000000000000000000000008000000000000100100,
1010202011112222,
1010202210112022,
1011202210112211,
500000000000000000000000000008000000000000300000,
00303033, //56
3000201110112022,
1010201210112222,
1010201220122060,
000000000000000008000000300000300000000000300000,
#GOGOEND
0,
0,
0, //63
#END
COURSE:Hard
LEVEL:6
BALLOON:10,10
SCOREINIT:740,3000
SCOREDIFF:220
#START
#GOGOSTART
2222,
2222,
2222,
2222,
2222,
2222,
30003303,
0,
1000201000102220,
1000201000102220,
11210121,
01210122,
33030306,
000000000000000000000000000008000000000000100100,
#GOGOEND
1010202010100011,
1010202010100011,
1010202010100011,
1010202010100011,
1000400040000022,
22221122,
500000000000000000000000000000000000000000000008,
00030030,
1010202010100011,
1010202010100011,
1010202010100011,
11221122,
30430430,
00022211,
10011001,
1122,
10211040,
10211040,
10211040,
3334,
30330330,
0333,
6,
000000000000000000000000000008000000000000000000,
33,
4000000000300011,
#GOGOSTART
1010202010000011,
12210105,
000000000000000000000000000008000000000000300000,
3000303000300011,
1010202010000011,
12210121,
500000000000000000000000000008000000000000100000,
0010404000300011,
1010202010000011,
12210105,
000000000000000000000000000008000000000000100100,
11221122,
00221102,
02112010,
500000000000000000000000000008000000000000300000,
00303033,
9009,
8,
9009,
80003303,
#GOGOEND
0,
0,
0,
#END
COURSE:Normal
LEVEL:5
BALLOON:8,8
SCOREINIT:990,5310
SCOREDIFF:460
#START
#GOGOSTART
0,
0,
0,
0,
2222,
2222,
30003303,
0,
0303,
0303,
4303,
0303,
33030306,
000000000000000000000000000000000008000000000000,
#GOGOEND
0101,
0202,
1122,
0202,
00303002,
02202020,
500000000000000000000000000000000000000000000008,
00030030,
0101,
0202,
1122,
0202,
30030030,
0022,
11,
1111,
500000000000000000000008000000000000400000000000,
500000000000000000000008000000000000400000000000,
500000000000000000000008000000000000400000000000,
3334,
30330330,
0333,
6,
000000000000000000000000000008000000000000000000,
33,
4,
#GOGOSTART
10011002,
20220205,
000000000000000000000000000008000000000000300000,
30330000,
10011002,
22020202,
500000000000000000000000000008000000000000100000,
0300,
10011002,
20220205,
000000000000000000000000000008000000000000200000,
2222,
00101101,
01102020,
500000000000000000000000000008000000000000300000,
0033,
9009,
8,
9009,
80000003,
#GOGOEND
0,
0,
0,
#END
COURSE:Easy
LEVEL:3
BALLOON:8,8
SCOREINIT:690,6490
SCOREDIFF:365
#START
#GOGOSTART
0,
0,
0,
0,
2222,
2222,
30003303,
0,
0303,
0303,
0303,
0303,
33030306,
000000000000000000000000000000000008000000000000,
#GOGOEND
0101,
0101,
0202,
0202,
0330,
0202,
500000000000000000000000000000000000000000000008,
00030030,
0101,
0101,
0202,
0202,
30030030,
0022,
11,
1111,
500000000000000000000008000000000000400000000000,
500000000000000000000008000000000000400000000000,
500000000000000000000008000000000000400000000000,
3334,
0303,
0303,
6,
000000000000000000000000000008000000000000000000,
33,
4,
#GOGOSTART
11,
20202025,
000000000000000000000000000008000000000000000000,
3300,
11,
2222,
500000000000000000000000000008000000000000100000,
0300,
11,
20202025,
000000000000000000000000000008000000000000000000,
2222,
0101,
0202,
500000000000000000000000000008000000000000300000,
0033,
9009,
8,
9009,
80000003,
#GOGOEND
0,
0,
0,
#END