858 lines
26 KiB
Plaintext
858 lines
26 KiB
Plaintext
//TJADB Project
|
|
TITLE:CHAOS RINGS
|
|
TITLEJA:CHAOS RINGS
|
|
SUBTITLE:--Noriyasu Agematsu/CHAOS RINGS
|
|
BPM:133.15
|
|
WAVE:CHAOS RINGS.ogg
|
|
OFFSET:-2.032
|
|
DEMOSTART:81.618
|
|
|
|
COURSE:Oni
|
|
LEVEL:7
|
|
BALLOON:30
|
|
SCOREINIT:610
|
|
SCOREDIFF:130
|
|
|
|
|
|
#START
|
|
|
|
|
|
100000100000200000200000200000000000000000000000,
|
|
#BPMCHANGE 132.19
|
|
100000100000200000200000200000000000000000000000,
|
|
100000200000100000200000200000000000000000000000,
|
|
#BPMCHANGE 131.65
|
|
#SCROLL 1.01
|
|
100000200000100000100000200000000000200000000000,
|
|
#BPMCHANGE 130.85
|
|
100000100000200000200000100000000000000000000000,
|
|
#BPMCHANGE 132.98
|
|
#SCROLL 1
|
|
100000100000200000200000100000000000000000000000,
|
|
#BPMCHANGE 132.68
|
|
100000100000200000200000500000000000000008000000,
|
|
#BPMCHANGE 131.75
|
|
#SCROLL 1.01
|
|
100000100000000000100100100000100000000000100100,
|
|
#BPMCHANGE 131.9
|
|
#SCROLL 1
|
|
100000100000000000100100100000100000000000100100,
|
|
#BPMCHANGE 134.61
|
|
#SCROLL 0.98
|
|
100000100000000000100100
|
|
#BPMCHANGE 128.86
|
|
#SCROLL 1.023
|
|
100000100000000000100100,
|
|
#MEASURE 5/4
|
|
#BPMCHANGE 109.09
|
|
#SCROLL 1.22
|
|
000000100100
|
|
#BPMCHANGE 116.07
|
|
#SCROLL 1.14
|
|
100000000000
|
|
#BPMCHANGE 112.78
|
|
#SCROLL 1.18
|
|
300000000300000000300000000000000000,
|
|
|
|
#GOGOSTART
|
|
#MEASURE 4/4
|
|
#BPMCHANGE 142.94
|
|
#SCROLL 0.93
|
|
300000000000100100100000000000100000000000000000,
|
|
#BPMCHANGE 134.88
|
|
#SCROLL 0.98
|
|
300000000000300000000300000000300000000000000000,
|
|
#BPMCHANGE 140.31
|
|
#SCROLL 0.94
|
|
100000100100100000100000000000100000000000100100,
|
|
#MEASURE 3/4
|
|
#BPMCHANGE 133.03
|
|
#SCROLL 1
|
|
100000000000300000000300000000300000,
|
|
#MEASURE 4/4
|
|
#BPMCHANGE 137.51
|
|
#SCROLL 0.96
|
|
200200200000000000200200200000000000100000000000,
|
|
#MEASURE 5/4
|
|
#BPMCHANGE 137.2
|
|
#SCROLL 0.97
|
|
100000100100100000100100100000000100000000100000
|
|
#BPMCHANGE 143.55
|
|
#SCROLL 0.92
|
|
000000000000,
|
|
#MEASURE 4/4
|
|
#BPMCHANGE 142.48
|
|
#SCROLL 0.93
|
|
300000000000000000300000000000300000000000300000,
|
|
#BPMCHANGE 135.41
|
|
#SCROLL 0.98
|
|
600000000000000000000000000000000008000000000000,
|
|
#BPMCHANGE 139.91
|
|
#SCROLL 0.95
|
|
300000000000000000300000000000300000000000100100,
|
|
#BPMCHANGE 135.98
|
|
#SCROLL 0.97
|
|
100000000000300000000300000000300000000000000000,
|
|
#BPMCHANGE 141.37
|
|
#SCROLL 0.94
|
|
100000100100100000100000000000100000000000100100,
|
|
#MEASURE 3/4
|
|
#BPMCHANGE 134.51
|
|
#SCROLL 0.98
|
|
100000000000300000000300000000300000,
|
|
#MEASURE 4/4
|
|
#BPMCHANGE 137.94
|
|
#SCROLL 0.96
|
|
000000200200200000000000200000000200000000200000,
|
|
#BPMCHANGE 138.32
|
|
200000000000000000100100100000000100000000100000,
|
|
#BPMCHANGE 138.92
|
|
#SCROLL 0.95
|
|
700000000000000000000000000000000000000000000000,
|
|
#BPMCHANGE 137.93
|
|
#SCROLL 0.96
|
|
000000000000000000000000000000000000800000000000,
|
|
|
|
#GOGOEND
|
|
#BPMCHANGE 138.64
|
|
100000100100100000200000000000100100100000000000,
|
|
#BPMCHANGE 137.37
|
|
100000100100100000200000000000100000100100100000,
|
|
#BPMCHANGE 138
|
|
100000100100100000200000000000200000100100100000,
|
|
100000100100100000200000000000000000100000000000,
|
|
100000100100100000200000000000100000100100100000,
|
|
#BPMCHANGE 137.5
|
|
100000100100100000200000000000100000100100100000,
|
|
#BPMCHANGE 138.5
|
|
100000100100100000200000000000200000100100100000,
|
|
#BPMCHANGE 138
|
|
500000000000000000000000000000000000000008000000,
|
|
100000100100100000200000100100100000100100200000,
|
|
100000100100100000200000100100100000100100200000,
|
|
100000100100100000200000100100100100100000200000,
|
|
#BPMCHANGE 135.5
|
|
#SCROLL 0.98
|
|
100000100100100000200000500000000000000008000000,
|
|
#BPMCHANGE 139.18
|
|
#SCROLL 0.95
|
|
000000000000300000000000000000100000000000100100,
|
|
#BPMCHANGE 140.45
|
|
#SCROLL 0.94
|
|
100000000000300000000000000000100000000000100100,
|
|
#BPMCHANGE 136.14
|
|
#SCROLL 0.97
|
|
100000000000000000200200200000200000200000200000,
|
|
#BPMCHANGE 138.04
|
|
#SCROLL 0.96
|
|
200000000000000000200200200000000200000000200000,
|
|
#BPMCHANGE 138
|
|
300000300000000000100100100000300000000000100100,
|
|
#BPMCHANGE 136.82
|
|
#SCROLL 0.97
|
|
100000300000000000100100100000300000000000000000,
|
|
#BPMCHANGE 137.88
|
|
#SCROLL 0.96
|
|
100000000000000000200200200000000200000000200000,
|
|
#BPMCHANGE 137.9
|
|
200000000200000000200000200000000200000000200000,
|
|
200000000000000000200200200000000200000000200000,
|
|
#BPMCHANGE 138
|
|
200000000000000000000000000000000000000000200200,
|
|
200000000000000000000000200000000200000000200000,
|
|
#BPMCHANGE 137.24
|
|
#SCROLL 0.97
|
|
200000000000000000200200200000200000200000200000,
|
|
#BPMCHANGE 138.76
|
|
#SCROLL 0.95
|
|
200000000000000000000000000000200000200000200000,
|
|
#BPMCHANGE 139.02
|
|
500000000000000000000008000000200200200000200200,
|
|
#BPMCHANGE 138.92
|
|
200000000000000000000000200000000000000000000000,
|
|
000000100000000000100100100000100000000000100000,
|
|
#BPMCHANGE 136.9
|
|
#SCROLL 0.97
|
|
000000100100100000000000300000000300000000300000,
|
|
#BPMCHANGE 137.58
|
|
#SCROLL 0.96
|
|
000000100100100000100100100000100000000000100000,
|
|
#BPMCHANGE 137.35
|
|
000000100100100000000000300000000300000000300000,
|
|
#BPMCHANGE 138.28
|
|
200000000000000000000000000000200000200000200000,
|
|
#BPMCHANGE 137.92
|
|
200000000000000000000000200000000000000000000000,
|
|
#BPMCHANGE 138
|
|
200000000000000000200200200000000000000000000000,
|
|
#BPMCHANGE 139.37
|
|
#SCROLL 0.95
|
|
000000000000000000000000200000000200000000000000,
|
|
#BPMCHANGE 138.04
|
|
#SCROLL 0.96
|
|
100000100000000000100100100000100000000000100000,
|
|
#BPMCHANGE 136.91
|
|
#SCROLL 0.97
|
|
000000000000500000000000000000000000000008000000,
|
|
#BPMCHANGE 136.89
|
|
100000100000200000200000100000200200100000100000,
|
|
#BPMCHANGE 138.87
|
|
#SCROLL 0.95
|
|
200000000000200200200200200000000000000000000000,
|
|
#BPMCHANGE 137.45
|
|
#SCROLL 0.96
|
|
100000100000200000200000100000200200100000100000,
|
|
#BPMCHANGE 137.96
|
|
200000000000000000000000000000000000000000000000,
|
|
#BPMCHANGE 140.45
|
|
#SCROLL 0.94
|
|
200000200000000000200200200000200000000000200200,
|
|
#BPMCHANGE 138.94
|
|
#SCROLL 0.95
|
|
200000200000000000200200200000200000000000200200,
|
|
#BPMCHANGE 134.22
|
|
#SCROLL 0.99
|
|
100000100000000000100100100000100000000000100100,
|
|
#BPMCHANGE 138.72
|
|
#SCROLL 0.95
|
|
100000100000000000100100100000100000000000100100,
|
|
#BPMCHANGE 136.54
|
|
#SCROLL 0.97
|
|
100000100000000000100100
|
|
#BPMCHANGE 129.33
|
|
#SCROLL 1.02
|
|
100000100000000000100100,
|
|
#MEASURE 5/4
|
|
#BPMCHANGE 108.03
|
|
#SCROLL 1.23
|
|
100000100100
|
|
#BPMCHANGE 117.8
|
|
#SCROLL 1.13
|
|
100000000000
|
|
#BPMCHANGE 112.34
|
|
#SCROLL 1.18
|
|
300000000300000000300000000000000000,
|
|
|
|
#GOGOSTART
|
|
#MEASURE 4/4
|
|
#BPMCHANGE 143.31
|
|
#SCROLL 0.92
|
|
300000000000100100100000000000100000000000000000,
|
|
#BPMCHANGE 134.12
|
|
#SCROLL 0.99
|
|
300000000000300000000300000000300000000000000000,
|
|
#BPMCHANGE 140.74
|
|
#SCROLL 0.94
|
|
100000100100100000100000000000100000000000100100,
|
|
#MEASURE 3/4
|
|
#BPMCHANGE 135.8
|
|
#SCROLL 0.98
|
|
100000000000300000000300000000300000,
|
|
#MEASURE 4/4
|
|
#BPMCHANGE 137.54
|
|
#SCROLL 0.96
|
|
000000200200200000000000200000000200000000200000,
|
|
#BPMCHANGE 138.89
|
|
#SCROLL 0.95
|
|
500000000008000000100100100000000300000000300000,
|
|
|
|
#GOGOEND
|
|
#BPMCHANGE 135.16
|
|
#SCROLL 0.98
|
|
300000000000000000000000000000000000000000000000,
|
|
|
|
|
|
#END
|
|
|
|
|
|
COURSE:Hard
|
|
LEVEL:6
|
|
BALLOON:21,40
|
|
SCOREINIT:670
|
|
SCOREDIFF:140
|
|
|
|
|
|
#START
|
|
|
|
|
|
200000000000000000000000000000000000200000000000,
|
|
#BPMCHANGE 132.197143554688
|
|
200000000000000000000000000000000000200000200000,
|
|
200000000000000000000000200000000000200000000000,
|
|
#BPMCHANGE 131.651260375977
|
|
200000000000000000000000000000200000200000000000,
|
|
#BPMCHANGE 130.857086181641
|
|
200000000000000000000000000000000000200000200000,
|
|
#BPMCHANGE 132.981185913086
|
|
200000000000000000000000000000000000200000200000,
|
|
#BPMCHANGE 132.687698364258
|
|
200000000000000000000000000000200000200000200000,
|
|
#BPMCHANGE 131.756195068359
|
|
100000100000000000100100100000100000000000100100,
|
|
#BPMCHANGE 131.900726318359
|
|
100000100000000000100100100000100000000000100100,
|
|
#BPMCHANGE 134.608291625977
|
|
100000100000000000100100
|
|
#BPMCHANGE 128.859252929688
|
|
100000100000000000000000,
|
|
#MEASURE 5/4
|
|
#BPMCHANGE 109.088851928711
|
|
000000100100
|
|
#BPMCHANGE 116.07568359375
|
|
100000000000
|
|
#BPMCHANGE 112.783912658691
|
|
500000000000000008000000000000000000,
|
|
#GOGOSTART
|
|
#MEASURE 4/4
|
|
#BPMCHANGE 142.945175170898
|
|
300000000000100100100000000000100000000000000000,
|
|
#BPMCHANGE 134.879119873047
|
|
300000000000300000000300000000300000000000000000,
|
|
#BPMCHANGE 140.311431884766
|
|
100000000000100000100000000000100000000000000000,
|
|
#BPMCHANGE 133.034851074219
|
|
#MEASURE 3/4
|
|
100000000000300000000300000000300000,
|
|
#BPMCHANGE 137.513122558594
|
|
#MEASURE 4/4
|
|
200200200000000000200200200000000000100000000000,
|
|
#MEASURE 5/4
|
|
#BPMCHANGE 137.202774047852
|
|
500000000000000000000000000000000000
|
|
#BPMCHANGE 143.558044433594
|
|
000008000000000000000000,
|
|
#BPMCHANGE 142.481491088867
|
|
#MEASURE 4/4
|
|
300000000000000000300000000000300000000000300000,
|
|
#BPMCHANGE 135.412414550781
|
|
600000000000000000000000000000000000800000000000,
|
|
#BPMCHANGE 139.91130065918
|
|
300000000000000000300000000000300000000000000000,
|
|
#BPMCHANGE 135.98323059082
|
|
100000000000300000000300000000300000000000000000,
|
|
#BPMCHANGE 141.371978759766
|
|
100000000000100000100000000000100000000000000000,
|
|
#BPMCHANGE 134.509017944336
|
|
#MEASURE 3/4
|
|
100000000000300000000300000000300000,
|
|
#BPMCHANGE 137.94499206543
|
|
#MEASURE 4/4
|
|
000000200200200000000000200000000200000000200000,
|
|
#BPMCHANGE 138.324691772461
|
|
200000000000000000100100100000000100000000100000,
|
|
#BPMCHANGE 138.924560546875
|
|
500000000000000000000000000000000000000000000000,
|
|
#BPMCHANGE 137.930709838867
|
|
000000000000000000000800000000000000000000000000,
|
|
#BPMCHANGE 138.644317626953
|
|
#GOGOEND
|
|
100000100100100000100000000000100000100000000000,
|
|
#BPMCHANGE 137.368621826172
|
|
100000100100100000100000000000100000100000000000,
|
|
#BPMCHANGE 138.003051757813
|
|
100000100100100000100000000000100000100000000000,
|
|
100000100100100000100000000000000000100000000000,
|
|
100000100100100000100000000000100000100000000000,
|
|
#BPMCHANGE 137.507766723633
|
|
100000100100100000100000000000100000100000000000,
|
|
#BPMCHANGE 138.502868652344
|
|
100000100100100000100000000000100000100000000000,
|
|
#BPMCHANGE 138.003051757813
|
|
500000000000000000000000000000000000000800000000,
|
|
100000100100100000100000100000100000100000000000,
|
|
100000100100100000100000100000100000100000000000,
|
|
100000100100100000100000100100100000100000000000,
|
|
#BPMCHANGE 135.507827758789
|
|
100000100100100000100000500000000000000800000000,
|
|
#BPMCHANGE 139.178497314453
|
|
000000000000300000000000100000100000000000100100,
|
|
#BPMCHANGE 140.452667236328
|
|
100000000000300000000000100000100000000000100100,
|
|
#BPMCHANGE 136.138732910156
|
|
100000000000000000200200200000200000200000000000,
|
|
#BPMCHANGE 138.045593261719
|
|
200000000000000000200200200000000200000000200000,
|
|
#BPMCHANGE 138.002410888672
|
|
700000000000000000000000000000000000000000000000,
|
|
#BPMCHANGE 136.825134277344
|
|
000000000000000000000000000000000800000000000000,
|
|
#BPMCHANGE 137.87841796875
|
|
100000000000000000200200200000000200000000200000,
|
|
#BPMCHANGE 137.901870727539
|
|
200000000000200000000000200000000000200000000000,
|
|
200000000000000000200200200000000200000000200000,
|
|
#BPMCHANGE 138.002410888672
|
|
200000000000000000000000000000000000000000200200,
|
|
200000000000000000000000200000000200000000200000,
|
|
#BPMCHANGE 137.245452880859
|
|
200000000000000000200200200000200000200000000000,
|
|
#BPMCHANGE 138.767761230469
|
|
200000000000000000000000000000200000200000200000,
|
|
#BPMCHANGE 139.024993896484
|
|
500000000000000000000800000000000000000000000000,
|
|
#BPMCHANGE 138.920059204102
|
|
500000000000000000000000000800000000000000000000,
|
|
000000100000000000100100100000100000000000000000,
|
|
#BPMCHANGE 136.902862548828
|
|
000000100100100000000000300000000300000000300000,
|
|
#BPMCHANGE 137.586288452148
|
|
000000100100100000000000100000100000000000100000,
|
|
#BPMCHANGE 137.357925415039
|
|
000000100100100000000000300000000300000000300000,
|
|
#BPMCHANGE 138.280059814453
|
|
200000000000000000000000000000200000200000200000,
|
|
#BPMCHANGE 137.926910400391
|
|
200000000000000000000000200000000000000000000000,
|
|
#BPMCHANGE 138.002410888672
|
|
200000000000000000200200200000000000000000000000,
|
|
#BPMCHANGE 139.368896484375
|
|
000000000000000000000000200000000200000000000000,
|
|
#BPMCHANGE 138.045593261719
|
|
500000000000000000000000000000000000000000000000,
|
|
#BPMCHANGE 136.910049438477
|
|
000000000000000000000000000800000000000000000000,
|
|
#BPMCHANGE 136.89599609375
|
|
100000100000100000000000200000200000100000000000,
|
|
#BPMCHANGE 138.873428344727
|
|
200000000000200200200000200000000000000000000000,
|
|
#BPMCHANGE 137.455795288086
|
|
100000100000200000000000200000200000100000000000,
|
|
#BPMCHANGE 137.96305847168
|
|
200000000000000000000000000000000000000000000000,
|
|
#BPMCHANGE 140.452667236328
|
|
200000200000000000200000200000200000000000200000,
|
|
#BPMCHANGE 138.939041137695
|
|
200000200000000000200000200000200000000000200000,
|
|
#BPMCHANGE 134.227661132813
|
|
700000000000000000000000000000000000000000000000,
|
|
#BPMCHANGE 138.726058959961
|
|
000000000000000000000000000000000000000000000000,
|
|
#BPMCHANGE 136.546142578125
|
|
000000000000000000000000
|
|
#BPMCHANGE 129.334777832031
|
|
000000000000000000000008,
|
|
#MEASURE 5/4
|
|
#BPMCHANGE 108.033317565918
|
|
000000000000
|
|
#BPMCHANGE 117.482521057129
|
|
000000000000
|
|
#BPMCHANGE 112.343406677246
|
|
000000000000000000000000000000000000,
|
|
#GOGOSTART
|
|
#BPMCHANGE 143.309112548828
|
|
#MEASURE 4/4
|
|
300000000000100100100000000000100000000000000000,
|
|
#BPMCHANGE 134.127151489258
|
|
300000000000300000000300000000300000000000000000,
|
|
#BPMCHANGE 140.747863769531
|
|
100000100100100000100000000000100000000000100000,
|
|
#BPMCHANGE 135.802261352539
|
|
#MEASURE 3/4
|
|
100000000000300000000300000000300000,
|
|
#BPMCHANGE 137.541809082031
|
|
#MEASURE 4/4
|
|
000000200200200000000000200000000200000000200000,
|
|
#BPMCHANGE 138.897216796875
|
|
500000000000800000000000300000000300000000300000,
|
|
#BPMCHANGE 135.161682128906
|
|
#GOGOEND
|
|
300000000000000000000000000000000000000000000000,
|
|
|
|
|
|
#END
|
|
|
|
|
|
COURSE:Normal
|
|
LEVEL:4
|
|
BALLOON:35,18,35
|
|
SCOREINIT:850
|
|
SCOREDIFF:1070
|
|
|
|
|
|
#START
|
|
|
|
|
|
200000000000000000000000000000000000200000000000,
|
|
#BPMCHANGE 132.197143554688
|
|
200000000000000000000000000000000000200000200000,
|
|
200000000000000000000000200000000000200000000000,
|
|
#BPMCHANGE 131.651260375977
|
|
200000000000000000000000000000200000200000000000,
|
|
#BPMCHANGE 130.857086181641
|
|
200000000000000000000000000000000000200000200000,
|
|
#BPMCHANGE 132.981185913086
|
|
200000000000000000000000000000000000200000200000,
|
|
#BPMCHANGE 132.687698364258
|
|
200000000000000000000000000000200000200000200000,
|
|
#BPMCHANGE 131.756195068359
|
|
700000000000000000000000000000000000000000000000,
|
|
#BPMCHANGE 131.900726318359
|
|
000000000000000000000000000000000000000000000000,
|
|
#BPMCHANGE 134.608291625977
|
|
000000000000000000000000
|
|
#BPMCHANGE 128.859252929688
|
|
000000000000000000000008,
|
|
#MEASURE 5/4
|
|
#BPMCHANGE 109.088851928711
|
|
000000000000
|
|
#BPMCHANGE 116.07568359375
|
|
000000000000
|
|
#BPMCHANGE 112.783912658691
|
|
000000000000000000000000000000000000,
|
|
#GOGOSTART
|
|
#MEASURE 4/4
|
|
#BPMCHANGE 142.945175170898
|
|
300000000000300000000000000000000000000000000000,
|
|
#BPMCHANGE 134.879119873047
|
|
100000000000100000000100000000000000000000000000,
|
|
#BPMCHANGE 140.311431884766
|
|
100000000000100000000000000000000000000000000000,
|
|
#BPMCHANGE 133.034851074219
|
|
#MEASURE 3/4
|
|
100000000000100000000100000000000000,
|
|
#BPMCHANGE 137.513122558594
|
|
#MEASURE 4/4
|
|
100000000000000000100000300000000000100000000000,
|
|
#MEASURE 5/4
|
|
#BPMCHANGE 137.202774047852
|
|
500000000000000000000000000000000000
|
|
#BPMCHANGE 143.558044433594
|
|
000008000000000000000000,
|
|
#BPMCHANGE 142.481491088867
|
|
#MEASURE 4/4
|
|
100000000000000000000000100000000000000000000000,
|
|
#BPMCHANGE 135.412414550781
|
|
100000000000000000000000000000000000000000000000,
|
|
#BPMCHANGE 139.91130065918
|
|
300000000000100000000000000000000000000000000000,
|
|
#BPMCHANGE 135.98323059082
|
|
100000000000100000000100000000000000000000000000,
|
|
#BPMCHANGE 141.371978759766
|
|
100000000000100000000000000000000000000000000000,
|
|
#BPMCHANGE 134.509017944336
|
|
#MEASURE 3/4
|
|
100000000000100000000100000000000000,
|
|
#BPMCHANGE 137.94499206543
|
|
#MEASURE 4/4
|
|
000000000000300000000000100000000000000000000000,
|
|
#BPMCHANGE 138.324691772461
|
|
100000000000000000100000100000000000100000000000,
|
|
#BPMCHANGE 138.924560546875
|
|
500000000000000000000000000000000000000000000000,
|
|
#BPMCHANGE 137.930709838867
|
|
000000000000000000800000000000000000000000000000,
|
|
#BPMCHANGE 138.644317626953
|
|
#GOGOEND
|
|
100000000000200000000000000000000000200000000000,
|
|
#BPMCHANGE 137.368621826172
|
|
100000000000200000000000000000000000200000000000,
|
|
#BPMCHANGE 138.003051757813
|
|
100000000000200000000000200000000000000000000000,
|
|
100000000000000000000000000000000000000000000000,
|
|
100000000000200000000000000000000000200000000000,
|
|
#BPMCHANGE 137.507766723633
|
|
100000000000200000000000000000000000200000000000,
|
|
#BPMCHANGE 138.502868652344
|
|
100000000000200000000000200000000000000000000000,
|
|
#BPMCHANGE 138.003051757813
|
|
100000000000000000000000000000000000000000000000,
|
|
100000000000000000000000000000000000000000000000,
|
|
100000000000000000000000100000000000100000000000,
|
|
100000000000000000000000100000000000000000000000,
|
|
#BPMCHANGE 135.507827758789
|
|
000000000000000000000000000000000000000000000000,
|
|
#BPMCHANGE 139.178497314453
|
|
100000000000300000000000100000100000000000000000,
|
|
#BPMCHANGE 140.452667236328
|
|
100000000000300000000000100000100000000000000000,
|
|
#BPMCHANGE 136.138732910156
|
|
200000000000000000200000200000000000200000000000,
|
|
#BPMCHANGE 138.045593261719
|
|
200000000000000000200000200000000000200000000000,
|
|
#BPMCHANGE 138.002410888672
|
|
700000000000000000000000000000000000000000000000,
|
|
#BPMCHANGE 136.825134277344
|
|
000000000000000000000000000000800000000000000000,
|
|
#BPMCHANGE 137.87841796875
|
|
100000000000000000000000100000000000200000000000,
|
|
#BPMCHANGE 137.901870727539
|
|
100000000000200000000000100000000000200000000000,
|
|
100000000000000000000000100000000000200000000000,
|
|
#BPMCHANGE 138.002410888672
|
|
100000000000000000000000000000000000000000000000,
|
|
100000000000000000000000100000000000200000000000,
|
|
#BPMCHANGE 137.245452880859
|
|
100000000000200000000000100000000000200000000000,
|
|
#BPMCHANGE 138.767761230469
|
|
100000000000000000000000100000000000200000000000,
|
|
#BPMCHANGE 139.024993896484
|
|
100000000000000000000000000000000000000000000000,
|
|
#BPMCHANGE 138.920059204102
|
|
500000000000000000000000800000000000000000000000,
|
|
100000000000000000000000000000100000100000000000,
|
|
#BPMCHANGE 136.902862548828
|
|
100000000000000000000000100000000000100000000000,
|
|
#BPMCHANGE 137.586288452148
|
|
100000000000000000000000000000100000100000000000,
|
|
#BPMCHANGE 137.357925415039
|
|
100000000000000000000000100000000000000000000000,
|
|
#BPMCHANGE 138.280059814453
|
|
200000000000000000000000000000200000200000000000,
|
|
#BPMCHANGE 137.926910400391
|
|
200000000000000000000000200000000000000000000000,
|
|
#BPMCHANGE 138.002410888672
|
|
200000000000000000200000200000000000000000000000,
|
|
#BPMCHANGE 139.368896484375
|
|
200000000000000000000000200000000000000000000000,
|
|
#BPMCHANGE 138.045593261719
|
|
500000000000000000000000000000000000000000000000,
|
|
#BPMCHANGE 136.910049438477
|
|
000000000000000000000000800000000000000000000000,
|
|
#BPMCHANGE 136.89599609375
|
|
100000000000100000000000200000000000100000000000,
|
|
#BPMCHANGE 138.873428344727
|
|
100000000000200000000000100000000000000000000000,
|
|
#BPMCHANGE 137.455795288086
|
|
100000000000100000000000200000000000100000000000,
|
|
#BPMCHANGE 137.96305847168
|
|
100000000000200000000000100000000000000000000000,
|
|
#BPMCHANGE 140.452667236328
|
|
200000000000000000200000200000000000000000200000,
|
|
#BPMCHANGE 138.939041137695
|
|
200000000000000000200000200000000000000000000000,
|
|
#BPMCHANGE 134.227661132813
|
|
700000000000000000000000000000000000000000000000,
|
|
#BPMCHANGE 138.726058959961
|
|
000000000000000000000000000000000000000000000000,
|
|
#BPMCHANGE 136.546142578125
|
|
000000000000000000000000
|
|
#BPMCHANGE 129.334777832031
|
|
000000000000000000000008,
|
|
#MEASURE 5/4
|
|
#BPMCHANGE 108.033317565918
|
|
000000000000
|
|
#BPMCHANGE 117.482521057129
|
|
000000000000
|
|
#BPMCHANGE 112.343406677246
|
|
000000000000000000000000000000000000,
|
|
#GOGOSTART
|
|
#BPMCHANGE 143.309112548828
|
|
#MEASURE 4/4
|
|
300000000000100000000000000000000000000000000000,
|
|
#BPMCHANGE 134.127151489258
|
|
100000000000100000000100000000000000000000000000,
|
|
#BPMCHANGE 140.747863769531
|
|
100000000000100000000000000000000000000000000000,
|
|
#BPMCHANGE 135.802261352539
|
|
#MEASURE 3/4
|
|
100000000000100000000100000000000000,
|
|
#BPMCHANGE 137.541809082031
|
|
#MEASURE 4/4
|
|
000000000000300000000000100000000000000000100000,
|
|
#BPMCHANGE 138.897216796875
|
|
100000000000000000000000300000000300000000300000,
|
|
#BPMCHANGE 135.161682128906
|
|
#GOGOEND
|
|
300000000000000000000000000000000000000000000000,
|
|
|
|
|
|
#END
|
|
|
|
|
|
COURSE:Easy
|
|
LEVEL:4
|
|
BALLOON:30,14,30
|
|
SCOREINIT:790
|
|
SCOREDIFF:210
|
|
|
|
|
|
#START
|
|
|
|
|
|
200000000000000000000000000000000000000000000000,
|
|
#BPMCHANGE 132.197143554688
|
|
200000000000000000000000000000000000200000000000,
|
|
200000000000000000000000000000000000200000000000,
|
|
#BPMCHANGE 131.651260375977
|
|
200000000000000000000000000000000000200000000000,
|
|
#BPMCHANGE 130.857086181641
|
|
200000000000000000000000000000000000200000000000,
|
|
#BPMCHANGE 132.981185913086
|
|
200000000000000000000000000000000000200000000000,
|
|
#BPMCHANGE 132.687698364258
|
|
200000000000000000000000000000000000200000000000,
|
|
#BPMCHANGE 131.756195068359
|
|
700000000000000000000000000000000000000000000000,
|
|
#BPMCHANGE 131.900726318359
|
|
000000000000000000000000000000000000000000000000,
|
|
#BPMCHANGE 134.608291625977
|
|
000000000000000000000000
|
|
#BPMCHANGE 128.859252929688
|
|
000000000000000000000008,
|
|
#MEASURE 5/4
|
|
#BPMCHANGE 109.088851928711
|
|
000000000000
|
|
#BPMCHANGE 116.07568359375
|
|
000000000000
|
|
#BPMCHANGE 112.783912658691
|
|
000000000000000000000000000000000000,
|
|
#GOGOSTART
|
|
#MEASURE 4/4
|
|
#BPMCHANGE 142.945175170898
|
|
300000000000000000000000100000000000000000000000,
|
|
#BPMCHANGE 134.879119873047
|
|
100000000000100000000000100000000000000000000000,
|
|
#BPMCHANGE 140.311431884766
|
|
100000000000000000000000100000000000000000000000,
|
|
#BPMCHANGE 133.034851074219
|
|
#MEASURE 3/4
|
|
100000000000100000000000100000000000,
|
|
#BPMCHANGE 137.513122558594
|
|
#MEASURE 4/4
|
|
000000000000000000000000300000000000000000000000,
|
|
#MEASURE 5/4
|
|
#BPMCHANGE 137.202774047852
|
|
000000000000000000000000000000000000
|
|
#BPMCHANGE 143.558044433594
|
|
000000000000000000000000,
|
|
#BPMCHANGE 142.481491088867
|
|
#MEASURE 4/4
|
|
100000000000000000000000100000000000000000000000,
|
|
#BPMCHANGE 135.412414550781
|
|
100000000000000000000000000000000000000000000000,
|
|
#BPMCHANGE 139.91130065918
|
|
300000000000000000000000100000000000000000000000,
|
|
#BPMCHANGE 135.98323059082
|
|
100000000000100000000000100000000000000000000000,
|
|
#BPMCHANGE 141.371978759766
|
|
100000000000000000000000100000000000000000000000,
|
|
#BPMCHANGE 134.509017944336
|
|
#MEASURE 3/4
|
|
100000000000100000000000100000000000,
|
|
#BPMCHANGE 137.94499206543
|
|
#MEASURE 4/4
|
|
000000000000300000000000000000000000000000000000,
|
|
#BPMCHANGE 138.324691772461
|
|
000000000000000000000000100000000000100000000000,
|
|
#BPMCHANGE 138.924560546875
|
|
500000000000000000000000000000000000000000000000,
|
|
#BPMCHANGE 137.930709838867
|
|
000000000000000000800000000000000000000000000000,
|
|
#BPMCHANGE 138.644317626953
|
|
#GOGOEND
|
|
000000000000200000000000000000000000200000000000,
|
|
#BPMCHANGE 137.368621826172
|
|
000000000000200000000000000000000000200000000000,
|
|
#BPMCHANGE 138.003051757813
|
|
000000000000200000000000200000000000000000000000,
|
|
000000000000000000000000000000000000000000000000,
|
|
000000000000200000000000000000000000200000000000,
|
|
#BPMCHANGE 137.507766723633
|
|
000000000000200000000000000000000000200000000000,
|
|
#BPMCHANGE 138.502868652344
|
|
000000000000200000000000200000000000000000000000,
|
|
#BPMCHANGE 138.003051757813
|
|
000000000000000000000000000000000000000000000000,
|
|
100000000000000000000000000000000000000000000000,
|
|
100000000000000000000000100000000000100000000000,
|
|
100000000000000000000000100000000000000000000000,
|
|
#BPMCHANGE 135.507827758789
|
|
000000000000000000000000000000000000000000000000,
|
|
#BPMCHANGE 139.178497314453
|
|
000000000000300000000000000000000000000000000000,
|
|
#BPMCHANGE 140.452667236328
|
|
000000000000300000000000000000000000000000000000,
|
|
#BPMCHANGE 136.138732910156
|
|
200000000000000000000000200000000000200000000000,
|
|
#BPMCHANGE 138.045593261719
|
|
200000000000000000000000200000000000200000000000,
|
|
#BPMCHANGE 138.002410888672
|
|
700000000000000000000000000000000000000000000000,
|
|
#BPMCHANGE 136.825134277344
|
|
000000000000000000000000000000800000000000000000,
|
|
#BPMCHANGE 137.87841796875
|
|
100000000000000000000000100000000000100000000000,
|
|
#BPMCHANGE 137.901870727539
|
|
100000000000000000000000100000000000000000000000,
|
|
100000000000000000000000100000000000100000000000,
|
|
#BPMCHANGE 138.002410888672
|
|
100000000000000000000000000000000000000000000000,
|
|
100000000000000000000000100000000000100000000000,
|
|
#BPMCHANGE 137.245452880859
|
|
100000000000000000000000100000000000000000000000,
|
|
#BPMCHANGE 138.767761230469
|
|
100000000000000000000000100000000000100000000000,
|
|
#BPMCHANGE 139.024993896484
|
|
100000000000000000000000000000000000000000000000,
|
|
#BPMCHANGE 138.920059204102
|
|
500000000000000000000000800000000000000000000000,
|
|
100000000000000000000000000000000000100000000000,
|
|
#BPMCHANGE 136.902862548828
|
|
100000000000000000000000100000000000000000000000,
|
|
#BPMCHANGE 137.586288452148
|
|
100000000000000000000000000000000000100000000000,
|
|
#BPMCHANGE 137.357925415039
|
|
100000000000000000000000100000000000000000000000,
|
|
#BPMCHANGE 138.280059814453
|
|
200000000000000000000000000000000000200000000000,
|
|
#BPMCHANGE 137.926910400391
|
|
200000000000000000000000200000000000000000000000,
|
|
#BPMCHANGE 138.002410888672
|
|
200000000000000000000000000000000000200000000000,
|
|
#BPMCHANGE 139.368896484375
|
|
200000000000000000000000200000000000000000000000,
|
|
#BPMCHANGE 138.045593261719
|
|
500000000000000000000000000000000000000000000000,
|
|
#BPMCHANGE 136.910049438477
|
|
000000000000000000000000800000000000000000000000,
|
|
#BPMCHANGE 136.89599609375
|
|
100000000000000000000000100000000000100000000000,
|
|
#BPMCHANGE 138.873428344727
|
|
100000000000000000000000100000000000000000000000,
|
|
#BPMCHANGE 137.455795288086
|
|
100000000000000000000000100000000000100000000000,
|
|
#BPMCHANGE 137.96305847168
|
|
100000000000000000000000100000000000000000000000,
|
|
#BPMCHANGE 140.452667236328
|
|
200000000000000000000000200000000000000000000000,
|
|
#BPMCHANGE 138.939041137695
|
|
200000000000000000000000200000000000000000000000,
|
|
#BPMCHANGE 134.227661132813
|
|
700000000000000000000000000000000000000000000000,
|
|
#BPMCHANGE 138.726058959961
|
|
000000000000000000000000000000000000000000000000,
|
|
#BPMCHANGE 136.546142578125
|
|
000000000000000000000000
|
|
#BPMCHANGE 129.334777832031
|
|
000000000000000000000008,
|
|
#MEASURE 5/4
|
|
#BPMCHANGE 108.033317565918
|
|
000000000000
|
|
#BPMCHANGE 117.482521057129
|
|
000000000000
|
|
#BPMCHANGE 112.343406677246
|
|
000000000000000000000000000000000000,
|
|
#GOGOSTART
|
|
#BPMCHANGE 143.309112548828
|
|
#MEASURE 4/4
|
|
300000000000000000000000100000000000000000000000,
|
|
#BPMCHANGE 134.127151489258
|
|
100000000000100000000000100000000000000000000000,
|
|
#BPMCHANGE 140.747863769531
|
|
100000000000000000000000100000000000000000000000,
|
|
#BPMCHANGE 135.802261352539
|
|
#MEASURE 3/4
|
|
100000000000100000000000100000000000,
|
|
#BPMCHANGE 137.541809082031
|
|
#MEASURE 4/4
|
|
000000000000300000000000000000000000000000000000,
|
|
#BPMCHANGE 138.897216796875
|
|
100000000000000000000000300000000000300000000000,
|
|
#BPMCHANGE 135.161682128906
|
|
#GOGOEND
|
|
300000000000000000000000000000000000000000000000,
|
|
|
|
|
|
#END
|
|
|