682 lines
6.4 KiB
Plaintext
682 lines
6.4 KiB
Plaintext
//TJADB Project
|
|
TITLE:Campus mode!!
|
|
TITLEJA:Campus mode!!
|
|
SUBTITLE:--Gakuen iDOLM@STER
|
|
SUBTITLEJA:「学園アイドルマスター」より
|
|
BPM:183
|
|
WAVE:Campus mode.ogg
|
|
OFFSET:-1.173
|
|
DEMOSTART:69.802
|
|
SCENEPRESET:IMAS
|
|
|
|
|
|
COURSE:Oni
|
|
LEVEL:7
|
|
BALLOON:22,28
|
|
SCOREINIT:460,1470
|
|
SCOREDIFF:110
|
|
|
|
#START
|
|
33,
|
|
33,
|
|
33,
|
|
3,
|
|
|
|
10101221,
|
|
01101221,
|
|
0400,
|
|
10203333, //8
|
|
|
|
0,
|
|
0,
|
|
#BPMCHANGE 186.63
|
|
#SCROLL 0.98
|
|
2022202210102000,
|
|
#BPMCHANGE 181.33
|
|
#SCROLL 1
|
|
111222,
|
|
|
|
#BPMCHANGE 183.85
|
|
0000
|
|
#SCROLL 0.99
|
|
#GOGOSTART
|
|
400011102000,
|
|
#BPMCHANGE 180.31
|
|
#SCROLL 1.01
|
|
11210121,
|
|
#BPMCHANGE 183
|
|
#SCROLL 1
|
|
0020002011102010,
|
|
02021120,
|
|
|
|
1000200011102000,
|
|
11210120,
|
|
7,
|
|
08, //20
|
|
#GOGOEND
|
|
|
|
01121112,
|
|
01121212,
|
|
01121112,
|
|
01120202,
|
|
|
|
1110102000200020,
|
|
1110102000202020,
|
|
1110201000102020,
|
|
33340401, //28
|
|
|
|
0010102011101020,
|
|
0010102011201020,
|
|
0010102011101020,
|
|
0011102000202020,
|
|
|
|
1110201000200010,
|
|
1110201000200040,
|
|
0022202010104000, //35
|
|
|
|
01212021,
|
|
2000201022102020,
|
|
05000000,
|
|
000000000000000000000008000000400000000000400000,
|
|
|
|
01211021,
|
|
1000201011102010,
|
|
05000000,
|
|
000000000008000000000000000000000000000000300000, //43
|
|
|
|
0011101000111020,
|
|
0011102000112020,
|
|
0011202000222020,
|
|
0011201120102020,
|
|
|
|
0000200011102000,
|
|
1000200020112000,
|
|
2000102000112000,
|
|
1020001011102020,
|
|
01112223,
|
|
03300000, //53
|
|
|
|
#GOGOSTART
|
|
1000200011102000,
|
|
3030404000111020,
|
|
0020101022201040,
|
|
04010112,
|
|
|
|
1110102010202010,
|
|
0011102010202010,
|
|
0011101110111011,
|
|
22230212, //61
|
|
|
|
0010201020111020,
|
|
0010201020111020,
|
|
0010201020112020,
|
|
0010202011102000,
|
|
|
|
10101221,
|
|
01101221,
|
|
0400,
|
|
10203333, //69
|
|
|
|
0000200011102000,
|
|
1110201000202010,
|
|
0020102010222010,
|
|
02121000,
|
|
|
|
1000200011102000,
|
|
1110201000202010,
|
|
0011101110102010,
|
|
4004004040000000, //77
|
|
#GOGOEND
|
|
|
|
11,
|
|
11,
|
|
11,
|
|
1,
|
|
|
|
2011101120102000,
|
|
500000000008, //83
|
|
|
|
0000
|
|
#GOGOSTART
|
|
400011102000,
|
|
3030404000111020,
|
|
0020101022201040,
|
|
04010112,
|
|
|
|
1110102010202010,
|
|
0011102010202010,
|
|
0011101110111011,
|
|
22230212, //91
|
|
|
|
0010201020111020,
|
|
0010201020111020,
|
|
0010201020112020,
|
|
0010202011102000,
|
|
|
|
10101221,
|
|
01101221,
|
|
0400,
|
|
#GOGOEND
|
|
1000433
|
|
#GOGOSTART
|
|
4, //99
|
|
|
|
0000201020112010,
|
|
500000000008,
|
|
0000201020112010,
|
|
500000000008,
|
|
|
|
0000201020112010,
|
|
600000000008,
|
|
0000201020112010,
|
|
7,
|
|
|
|
00000008,
|
|
#GOGOEND
|
|
3,
|
|
0, //110
|
|
#END
|
|
|
|
|
|
COURSE:Hard
|
|
LEVEL:5
|
|
BALLOON:19,10,30,10,10,21
|
|
SCOREINIT:490,2030
|
|
SCOREDIFF:115
|
|
|
|
#START
|
|
33,
|
|
33,
|
|
33,
|
|
3,
|
|
|
|
10101221,
|
|
01101221,
|
|
0400,
|
|
10203333, //8
|
|
|
|
0,
|
|
0,
|
|
#BPMCHANGE 186.63
|
|
#SCROLL 0.98
|
|
20202220,
|
|
#BPMCHANGE 181.33
|
|
#SCROLL 1
|
|
111111,
|
|
|
|
#BPMCHANGE 183.85
|
|
00
|
|
#SCROLL 0.99
|
|
#GOGOSTART
|
|
301110,
|
|
#BPMCHANGE 180.31
|
|
#SCROLL 1.01
|
|
20220220,
|
|
#BPMCHANGE 183
|
|
#SCROLL 1
|
|
01011011,
|
|
02022020,
|
|
|
|
10101110,
|
|
20220220,
|
|
7,
|
|
08, //20
|
|
#GOGOEND
|
|
|
|
01101011,
|
|
02202022,
|
|
01101011,
|
|
01110000,
|
|
|
|
10120202,
|
|
10120220,
|
|
10110110,
|
|
33330301, //28
|
|
|
|
01101011,
|
|
02202022,
|
|
01101011,
|
|
00110000,
|
|
|
|
10120201,
|
|
10120207,
|
|
0008, //35
|
|
|
|
02201010,
|
|
20201122,
|
|
05000000,
|
|
000000000000000000000008000000000000000000000000,
|
|
|
|
02201010,
|
|
20201122,
|
|
05000000,
|
|
000000000008000000000000000000000000000000300000, //43
|
|
|
|
01110112,
|
|
01120111,
|
|
01110112,
|
|
01204444,
|
|
|
|
0111,
|
|
2122,
|
|
9,
|
|
0,
|
|
0900000000008000,
|
|
0, //53
|
|
|
|
#GOGOSTART
|
|
1212,
|
|
33440102,
|
|
01112014,
|
|
04000000,
|
|
|
|
10112001,
|
|
00112007,
|
|
0008,
|
|
33330222, //61
|
|
|
|
01101222,
|
|
01101222,
|
|
01101222,
|
|
02202020,
|
|
|
|
10101221,
|
|
01101221,
|
|
0400,
|
|
10203333, //69
|
|
|
|
00201120,
|
|
10110222,
|
|
01101222,
|
|
01101000,
|
|
|
|
1212,
|
|
10110221,
|
|
02202220,
|
|
4004004040000000, //77
|
|
#GOGOEND
|
|
|
|
11,
|
|
11,
|
|
11,
|
|
1,
|
|
|
|
10102220,
|
|
500000000008, //83
|
|
|
|
0
|
|
#GOGOSTART
|
|
412,
|
|
33440102,
|
|
01112014,
|
|
04000000,
|
|
|
|
10112001,
|
|
00112007,
|
|
0008,
|
|
33330222, //91
|
|
|
|
01101222,
|
|
01101222,
|
|
01101222,
|
|
02202020,
|
|
|
|
10101221,
|
|
01101221,
|
|
0400,
|
|
#GOGOEND
|
|
1000333
|
|
#GOGOSTART
|
|
3, //99
|
|
|
|
00202120,
|
|
500000000008,
|
|
00202120,
|
|
500000000008,
|
|
|
|
00404140,
|
|
600000000008,
|
|
00404140,
|
|
7,
|
|
|
|
00000800,
|
|
#GOGOEND
|
|
3,
|
|
0, //110
|
|
#END
|
|
|
|
|
|
COURSE:Normal
|
|
LEVEL:3
|
|
BALLOON:11,6,17,8,8,12
|
|
SCOREINIT:420,2660
|
|
SCOREDIFF:100
|
|
|
|
#START
|
|
33,
|
|
33,
|
|
33,
|
|
3,
|
|
|
|
10101001,
|
|
01101001,
|
|
0400,
|
|
10103333, //8
|
|
|
|
0,
|
|
0,
|
|
#BPMCHANGE 186.63
|
|
#SCROLL 0.98
|
|
20202220,
|
|
#BPMCHANGE 181.33
|
|
#SCROLL 1
|
|
500000000008,
|
|
|
|
#BPMCHANGE 183.85
|
|
0
|
|
#SCROLL 0.99
|
|
#GOGOSTART
|
|
311,
|
|
#BPMCHANGE 180.31
|
|
#SCROLL 1.01
|
|
20220000,
|
|
#BPMCHANGE 183
|
|
#SCROLL 1
|
|
10101011,
|
|
02,
|
|
|
|
1111,
|
|
20220000,
|
|
7,
|
|
08, //20
|
|
#GOGOEND
|
|
|
|
1011,
|
|
1022,
|
|
1011,
|
|
1,
|
|
|
|
3300,
|
|
4400,
|
|
10110000,
|
|
30030301, //28
|
|
|
|
0011,
|
|
1022,
|
|
1011,
|
|
1,
|
|
|
|
10110100,
|
|
10110107,
|
|
0008, //35
|
|
|
|
0222,
|
|
20202222,
|
|
05000000,
|
|
000000000000000000000008000000000000000000000000,
|
|
|
|
0222,
|
|
20202222,
|
|
05000000,
|
|
000000000008000000000000000000000000000000300000, //43
|
|
|
|
00030003,
|
|
00030004,
|
|
00040004,
|
|
0444,
|
|
|
|
0111,
|
|
2222,
|
|
9,
|
|
0,
|
|
0900000000008000,
|
|
0, //53
|
|
|
|
#GOGOSTART
|
|
1122,
|
|
33330001,
|
|
01101004,
|
|
04000000,
|
|
|
|
10111001,
|
|
00111007,
|
|
000000000000000000000000000000000000000000000008,
|
|
00000333, //61
|
|
|
|
00000333,
|
|
00000333,
|
|
00000004,
|
|
0222,
|
|
|
|
10101001,
|
|
01101001,
|
|
0400,
|
|
10103333, //69
|
|
|
|
0111,
|
|
10110002,
|
|
02202002,
|
|
02202000,
|
|
|
|
1111,
|
|
10110002,
|
|
0222,
|
|
4004004040000000, //77
|
|
#GOGOEND
|
|
|
|
11,
|
|
11,
|
|
11,
|
|
1,
|
|
|
|
10101110,
|
|
500000000008, //83
|
|
|
|
0
|
|
#GOGOSTART
|
|
400,
|
|
33330001,
|
|
01101004,
|
|
04000000,
|
|
|
|
10111001,
|
|
00111007,
|
|
000000000000000000000000000000000000000000000008,
|
|
00000333, //91
|
|
|
|
00000333,
|
|
00000333,
|
|
00000004,
|
|
0222,
|
|
|
|
10101001,
|
|
01101001,
|
|
0400,
|
|
#GOGOEND
|
|
1000333
|
|
#GOGOSTART
|
|
3, //99
|
|
|
|
0111,
|
|
500000000008,
|
|
0222,
|
|
500000000008,
|
|
|
|
0333,
|
|
600000000008,
|
|
0444,
|
|
7,
|
|
|
|
00000800,
|
|
#GOGOEND
|
|
3,
|
|
0, //110
|
|
#END
|
|
|
|
|
|
COURSE:Easy
|
|
LEVEL:3
|
|
BALLOON:9,8,3,13,6,9,6,9,10
|
|
SCOREINIT:500,4570
|
|
SCOREDIFF:125
|
|
|
|
#START
|
|
33,
|
|
33,
|
|
33,
|
|
3,
|
|
|
|
10101007,
|
|
0,
|
|
0800,
|
|
1033, //8
|
|
|
|
0,
|
|
0,
|
|
#BPMCHANGE 186.63
|
|
#SCROLL 0.98
|
|
22,
|
|
#BPMCHANGE 181.33
|
|
#SCROLL 1
|
|
500000000000000000000000000000000008000000000000,
|
|
|
|
#BPMCHANGE 183.85
|
|
0
|
|
#SCROLL 0.99
|
|
#GOGOSTART
|
|
300,
|
|
#BPMCHANGE 180.31
|
|
#SCROLL 1.01
|
|
11,
|
|
#BPMCHANGE 183
|
|
#SCROLL 1
|
|
1011,
|
|
0,
|
|
|
|
11,
|
|
11,
|
|
7,
|
|
08, //20
|
|
#GOGOEND
|
|
|
|
1,
|
|
1,
|
|
11,
|
|
1,
|
|
|
|
3,
|
|
4,
|
|
11,
|
|
3, //28
|
|
|
|
11,
|
|
1,
|
|
11,
|
|
1,
|
|
|
|
1100,
|
|
10100007,
|
|
08, //35
|
|
|
|
22,
|
|
2022,
|
|
05000000,
|
|
000000000000000000000008000000000000000000000000,
|
|
|
|
22,
|
|
2022,
|
|
05000000,
|
|
000000000008000000000000000000000000000000300000, //43
|
|
|
|
00030003,
|
|
00000003,
|
|
00030003,
|
|
0044,
|
|
|
|
01,
|
|
11,
|
|
9,
|
|
0,
|
|
0900000000008000,
|
|
0, //53
|
|
|
|
#GOGOSTART
|
|
11,
|
|
3300,
|
|
10001003,
|
|
03000000,
|
|
|
|
22,
|
|
20002007,
|
|
000000000000000000000000000000000000000000000008,
|
|
00000303, //61
|
|
|
|
00000303,
|
|
00000303,
|
|
00000004,
|
|
0,
|
|
|
|
10101007,
|
|
0,
|
|
0800,
|
|
1033, //69
|
|
|
|
01,
|
|
10100002,
|
|
00000002,
|
|
0,
|
|
|
|
11,
|
|
10100002,
|
|
02,
|
|
4, //77
|
|
#GOGOEND
|
|
|
|
11,
|
|
1,
|
|
11,
|
|
1,
|
|
|
|
1110,
|
|
500000000000000000000000000000000000000008000000, //83
|
|
|
|
0
|
|
#GOGOSTART
|
|
400,
|
|
3300,
|
|
10001003,
|
|
03000000,
|
|
|
|
22,
|
|
20002007,
|
|
000000000000000000000000000000000000000000000008,
|
|
00000303, //91
|
|
|
|
00000303,
|
|
00000303,
|
|
00000004,
|
|
0,
|
|
|
|
10101007,
|
|
0,
|
|
0800,
|
|
#GOGOEND
|
|
0000000
|
|
#GOGOSTART
|
|
3, //99
|
|
|
|
0111,
|
|
500000000000000000000000000000000000000008000000,
|
|
0111,
|
|
500000000000000000000000000000000000000008000000,
|
|
|
|
0333,
|
|
600000000000000000000000000000000000000008000000,
|
|
0333,
|
|
7,
|
|
|
|
00000800,
|
|
#GOGOEND
|
|
3,
|
|
0, //110
|
|
#END |