Files
ESE/07 Game Music/Chain Chronicle Normal Battle Medley/Chain Chronicle Normal Battle Medley.tja
GanYiZhongandClaude Opus 5 7320a9448e Add TITLEZH_TW / SUBTITLEZH_TW (Traditional Chinese titles)
Add Traditional Chinese title (1276 charts) and subtitle (900 charts)
header fields. Header additions only; no chart data changed.

Co-Authored-By: Claude Opus 5 <noreply@anthropic.com>
2026-09-17 12:42:55 +08:00

653 lines
9.8 KiB
Plaintext

//TJADB Project
TITLE:Chain Chronicle Normal Battle Medley
TITLEJA:チェインクロニクル 通常バトルメドレー
TITLEZH:チェインクロニクル 通常バトルメドレー
TITLEZH_TW:チェインクロニクル 通常バトルメドレー
SUBTITLE:--Takahiro Kai/Chain Chronicle
SUBTITLEJA:
BPM:136
WAVE:Chain Chronicle Normal Battle Medley.ogg
OFFSET:-2.006
DEMOSTART:5.303
//Shinuchi: 5910/3330/2160/1520/1250
COURSE:Edit
LEVEL:9
BALLOON:13,20
SCOREINIT:440,1280
SCOREDIFF:103
#START
1020112210201122,
1211201202104022,
11210201,
0010201012101020,
1110201000200010,
0010201012102022,
1010201000102022,
1010201000102022,
11210201,
0011202012102022,
11210201,
0011202012101020,
1110201000200010,
0011202012111022,
1010201000102022,
11220112,
1011201000221020,
0022700000000000,
00801122, //19
1002102002101020,
1002102002101120,
1002102002101020,
1002102002101120,
1120203000221030,
0022104000221020,
3002102002101020,
1002102002101020,
1002102002121020,
1122121202112220, //29
#GOGOSTART
1101020102101201,
0210120102012210,
1101020102101201,
0210120102012212,
1201020202101201,
0210120102012212,
1201020202101201,
#MEASURE 5/4
0210120202012212
#BPMCHANGE 165
0000, //37
#GOGOEND
30112010201022102010,
10112010201022102210,
10112010201022112010,
10112010201022112210,
30112010201022102010,
10112010201022112210,
10112010201022102010,
100000100100200000100000200000100000200200100100200000101010, //45
20021010221010001011,
#MEASURE 6/4
102010001011201020221020,
#MEASURE 5/4
11111011102011111020,
11111011102011111022,
10021010221010001011,
#MEASURE 6/4
102010001011201020221020,
#MEASURE 5/4
11111011102011111020,
11111111102011112222, //53
#GOGOSTART
10112011201112111020,
10112011201112111020,
10112011201112111022,
11112011201112111022,
11112111201112111022,
100100100100200100100100200000100100100200100200100000202020,
11112111201112111022,
100100100100200100100100200000100100100200100000000000202020, //61
10012010202010222222,
#MEASURE 11/8
1011201112111000111020,
#MEASURE 5/4
10112011111010001111,
22112111200011102220, //65
#MEASURE 4/4
1120101120101122,
1211221211202222,
1122121122106000,
000000000000000000000000000000000000000000000008, //69
#GOGOEND
#BARLINEOFF
#MEASURE 3/4
00
#BPMCHANGE 136
0,
#BARLINEON
#MEASURE 4/4
1102020102102107,
#MEASURE 5/4
00008,
#MEASURE 4/4
0, //73
#BARLINEOFF
0,
0,
0,
0, //77
#END
COURSE:Oni
LEVEL:8
BALLOON:7,11,5,5,11,7,11,5,13,9,15
SCOREINIT:530,1680
SCOREDIFF:120
#START
0,
0000000000000022,
11210207,
0000000800101020,
10120207,
0000000000800022,
100000100000200000700000000000000080000000200200,
100000100000200000700000000000000080000000200200,
11210207,
0000000000800022, //10
11210207,
0000000800101020,
10120207,
0000000000800022,
100000100000200000700000000000000080000000200200,
11220112,
11210212,
0022700000000000,
00801122, //19
1002102000102020,
1002102000102020,
1002102000102020,
1002102000102020,
11230123,
01230122,
3001002002102020,
1001002002102020,
1001002002102020,
1110121202104000, //29
#GOGOSTART
1101020101101201,
0110120101011210,
1101020101101201,
0110120101011210,
1101020102101201,
0210120102011210,
1101020102101201,
#MEASURE 5/4
0210120102011210
#BPMCHANGE 165
0000, //37
#GOGOEND
30112010201020112010,
10112010201020112210,
10112010201020112010,
10112010201020112210,
30112010201020112010,
10112010201020112210,
10112010201020112210,
10112010201022112210, //45
1012021010,
#MEASURE 6/4
121011212202,
#MEASURE 5/4
10111011102011101020,
10111011102011101020,
1012021010,
#MEASURE 6/4
121011212202,
#MEASURE 5/4
10111011102011101020,
10111011102011102220, //53
#GOGOSTART
30112010201020112010,
10112010201020112020,
10112010201120112022,
10112010201120112210,
30112011201120112210,
10112011201120221022,
10112011201120112022,
10112011201120202220, //61
30030000000000400000,
#MEASURE 11/8
3000222010221000300040,
#MEASURE 5/4
30000011201022107000,
00000000800011102220,
#MEASURE 4/4
1110102220201120,
2022102011202220,
1120201120106000,
000000000000000000000000000000000000000000000008, //69
#GOGOEND
#BARLINEOFF
#MEASURE 3/4
00
#BPMCHANGE 136
0,
#BARLINEON
#MEASURE 4/4
1102020102102107,
#MEASURE 5/4
00008,
#MEASURE 4/4
0, //73
#BARLINEOFF
0,
0,
0,
0, //77
#END
COURSE:Hard
LEVEL:6
BALLOON:12,20,12,12,8,10
SCOREINIT:560,2520
SCOREDIFF:135
#START
0,
0000000000000011,
11110205,
000000000000000008000000000000100000100000200000,
10120205,
000000000000000000000008000000000000000000100100,
100000100000200000500000000008000000000000100100,
100000100000200000500000000008000000000000100100,
11210205,
000000000000000000000008000000000000000000100100, //10
11210205,
000000000000000008000000000000100000100000200000,
10120205,
000000000000000000000008000000000000000000100100,
100000100000200000500000000008000000000000100100,
11220112,
11210121,
0022700000000000,
00801122, //19
10010221,
10210122,
10010221,
10210122,
11230123,
01230127,
0,
0,
8,
1110100300000000, //29
#GOGOSTART
1101010101101101,
0110110101011000,
1101010101101101,
0110110101011000,
1101010101101101,
0110110101011000,
1101010101101101,
#MEASURE 5/4
0110110101011000
#BPMCHANGE 165
0000, //37
#GOGOEND
30002010201020001110,
30002010201020001110,
30002010201020001110,
30002010201020002220,
30002010201020001110,
30002010201020002220,
30002010201020001110,
30002010201020002220, //45
3001021010,
#MEASURE 6/4
112011212202,
#MEASURE 5/4
500000000000000000000000000000000000000000000008000000000000,
70008,
3001021010,
#MEASURE 6/4
112011212202,
#MEASURE 5/4
500000000000000000000000000000000000000000000008000000000000,
70008, //53
#GOGOSTART
30002010201020001110,
30002010201020002220,
30002010201020001110,
30002010201020002220,
30002010201020101110,
30002010201020101110,
30002010201020102220,
30002010201020102220, //61
30030000000000400000,
#MEASURE 11/8
30030000304,
#MEASURE 5/4
3003003070,
00833, //65
#MEASURE 4/4
40030030,
03003040,
30030060,
000000000000000000000000000000000000000000000008, //69
#GOGOEND
#BARLINEOFF
#MEASURE 3/4
00
#BPMCHANGE 136
0,
#BARLINEON
#MEASURE 4/4
1101010101102207,
#MEASURE 5/4
00008,
#MEASURE 4/4
0, //73
#BARLINEOFF
0,
0,
0,
0, //77
#END
COURSE:Normal
LEVEL:5
BALLOON:9,20,7,7,8
SCOREINIT:640,4150
SCOREDIFF:173
#START
0,
0,
10110105,
000000000000000000000008000000000000000000000000,
20220205,
000000000000000000000008000000000000000000000000,
10110000,
10110000,
10110105,
000000000000000000000008000000000000000000000000,
10110105,
000000000000000000000008000000000000000000000000,
20220205,
000000000000000000000008000000000000000000000000,
10110020,
10220020,
10110207,
0,
80001120, //19
10120110,
10220110,
10120110,
10220110,
11130113,
01130119,
0,
09,
8,
1000100300000000, //29
#GOGOSTART
3000100100001001,
0000100100001000,
3000100100001001,
0000100100001000,
3000100100001001,
0000100100002000,
3000100100002002,
#MEASURE 5/4
0000100100002000
#BPMCHANGE 165
0000, //37
#GOGOEND
3000111010,
3000111010,
3000111010,
3000111010,
3000111020,
3000111020,
3000222020,
3000222020, //45
3001011010,
#MEASURE 6/4
111011101010,
#MEASURE 5/4
500000000000000000000000000000000000000000000008000000000000,
70008,
3001011010,
#MEASURE 6/4
111011102020,
#MEASURE 5/4
500000000000000000000000000000000000000000000008000000000000,
70008, //53
#GOGOSTART
3000111010,
3000111010,
3000111010,
3000111010,
3000111020,
3000111020,
3000222020,
3000222020, //61
30030000000000300000,
#MEASURE 11/8
30030000303,
#MEASURE 5/4
3003003060,
000000000000000008000000000000000000300000000000300000000000, //65
#MEASURE 4/4
40040040,
04004040,
30030060,
000000000000000000000000000000000000000000000008, //69
#GOGOEND
#BARLINEOFF
#MEASURE 3/4
00
#BPMCHANGE 136
0,
#BARLINEON
#MEASURE 4/4
1000000101002007,
#MEASURE 5/4
00008,
#MEASURE 4/4
0, //73
#BARLINEOFF
0,
0,
0,
0, //77
#END
COURSE:Easy
LEVEL:3
BALLOON:8,20,6,6,6
SCOREINIT:660,7890
SCOREDIFF:205
#START
0,
0,
10010005,
000000000000000000000008000000000000000000000000,
20020005,
000000000000000000000008000000000000000000000000,
10010000,
10010000,
10010005,
000000000000000000000008000000000000000000000000,
10010005,
000000000000000000000008000000000000000000000000,
20020005,
000000000000000000000008000000000000000000000000,
10010000,
10020000,
10010009,
0009,
8, //19
10010010,
10010000,
10010020,
10010000,
30030003,
00030009,
0,
0,
0900,
8,//29
#GOGOSTART
3000000100000001,
0000000100002000,
3000000100000001,
0000000100002000,
3000000100000001,
0000000200002000,
3000000100000001,
#MEASURE 5/4
0000000200002000
#BPMCHANGE 165
0000, //37
#GOGOEND
30011,
30011,
30011,
30011,
40011,
40011,
40011,
4, //45
1001000010,
#MEASURE 6/4
101101,
#MEASURE 5/4
500000000000000000000000000000000000000000000008000000000000,
70008,
1001000010,
#MEASURE 6/4
101101,
#MEASURE 5/4
500000000000000000000000000000000000000000000008000000000000,
70008, //53
#GOGOSTART
30011,
30011,
30011,
30011,
40011,
40011,
40011,
40004, //61
30000000000000600000,
#MEASURE 11/8
000000000000000000000008000000000000000000000000300000000000300000,
#MEASURE 5/4
0006000000,
000000000008000000000000000000000000300000000000300000000000, //65
#MEASURE 4/4
40040060,
000000000000000000000000000008000000000000000000,
40040060,
000000000000000000000000000000000000000000000008, //69
#GOGOEND
#BARLINEOFF
#MEASURE 3/4
00
#BPMCHANGE 136
0,
#BARLINEON
#MEASURE 4/4
10000000100001007,
#MEASURE 5/4
00008,
#MEASURE 4/4
0, //73
#BARLINEOFF
0,
0,
0,
0, //77
#END