625 lines
7.9 KiB
Plaintext
625 lines
7.9 KiB
Plaintext
//TJADB Project
|
|
TITLE:Crush 'em All
|
|
TITLEJA:Crush 'em All
|
|
SUBTITLE:--Critical Velocity
|
|
SUBTITLEJA:「クリティカルベロシティ」より
|
|
BPM:174
|
|
WAVE:Crush em All.ogg
|
|
OFFSET:-1.420
|
|
DEMOSTART:2.594
|
|
|
|
|
|
COURSE:Oni
|
|
LEVEL:10
|
|
BALLOON:15,15,12,15,42,12,22,18
|
|
SCOREINIT:360,870
|
|
SCOREDIFF:73
|
|
|
|
#START
|
|
00000001,
|
|
0010201012102010,
|
|
2010201012101020,
|
|
0010201012102010,
|
|
200000100100200000100000200000001000000000100000,
|
|
|
|
2010201005000000,
|
|
000000000000000000000008000000000100001000100000,
|
|
21211121,
|
|
1020102010112101, //9
|
|
|
|
2010201007000000,
|
|
000000000000000000000000800000000100001000100000,
|
|
21211121,
|
|
1020102010101022,
|
|
|
|
2011201022102012,
|
|
2011201022102022,
|
|
2011201022102012,
|
|
2011201022221121, //17
|
|
|
|
2010201005000000,
|
|
000000000000000000000008000000000100000100100000,
|
|
21211121,
|
|
1020102010221110,
|
|
|
|
2010201007000000,
|
|
000000000000000000000000800000001000000100100000,
|
|
2010201012102011,
|
|
2010201010221020, //25
|
|
|
|
1011201010112010,
|
|
1011201010112010,
|
|
1011221010112210,
|
|
1011221010112210,
|
|
|
|
1011221110112211,
|
|
1011221110112211,
|
|
202020200000100000200200100000200000100000200200,
|
|
1020102211111122, //33
|
|
|
|
100200200200100202002000100200200200100200020001,
|
|
000200200200100020200200100100200200100000200200,
|
|
1212112211121112,
|
|
100000100100200000000010010200000200100100200200,
|
|
|
|
1121202211122211,
|
|
100100100200200200100100100010100200200200100100,
|
|
100010010020020020010010010001010020202001010010,
|
|
70000082, //41
|
|
|
|
0011202010101020,
|
|
0010202110211020,
|
|
01212121,
|
|
2211121010112120,
|
|
|
|
70000008,
|
|
1021021021021021,
|
|
100100200200100200100200500000000000000000000008,
|
|
0020101010202021, //49
|
|
|
|
1020212011112011,
|
|
1120111120111120,
|
|
1212101010101021,
|
|
2120201110112020,
|
|
|
|
0011202010001020,
|
|
100100200000110110110200,
|
|
7,
|
|
0, //57
|
|
|
|
0000000080111222,
|
|
1112112211212500,
|
|
000000000000000008000010100000101000200000000000,
|
|
1010202110211120,
|
|
|
|
01221121,
|
|
1010202010102021,
|
|
2021201012102211,
|
|
1010202110102120, //65
|
|
|
|
01227000,
|
|
00821212,
|
|
000000000000500000000000000000000008000000600000,
|
|
000000000000000008000000100000100000100000200000,
|
|
|
|
0011202010221010,
|
|
2011202010221020,
|
|
0011202010221010,
|
|
2011202010112120, //73
|
|
|
|
1011202011221010,
|
|
200000100100200000200000100010100000100010100010,
|
|
1010102210212011,
|
|
2011201120121120,
|
|
000100000100000100200111,
|
|
21212112, //79
|
|
|
|
#GOGOSTART
|
|
1111201122112011,
|
|
1011201010112010,
|
|
2021101110112011,
|
|
2021101110111111,
|
|
|
|
2021111020201111,
|
|
1022201110222022,
|
|
1111202010122011,
|
|
2012201110111020, //87
|
|
|
|
1110102121211021,
|
|
1011102010211011,
|
|
200000200100100000200200100000001000000010000000,
|
|
2021122010211070,
|
|
|
|
0,
|
|
08121012,
|
|
1111201020102010,
|
|
2010201011111120, //95
|
|
|
|
100000100000200000200000100100101010200000200000,
|
|
100101111111222222200200,
|
|
100000100100200100200100000020002000100010002000,
|
|
1010201121212021,
|
|
|
|
1010202110122021,
|
|
1011201120201021,
|
|
1011221120102020,
|
|
1010121112111220, //103
|
|
|
|
1211221211212020,
|
|
11270000,
|
|
00081111,
|
|
2022222010202010,
|
|
|
|
0020102020101022,
|
|
1020102012221010,
|
|
2011202010102012,
|
|
000000100100200000200000100100100100200200200010, //111
|
|
#GOGOEND
|
|
|
|
100100000100200100200111,
|
|
21212114,
|
|
0,
|
|
0, //115
|
|
#END
|
|
|
|
|
|
COURSE:Hard
|
|
LEVEL:7
|
|
BALLOON:14,14,9,10,9,33,9,16,10,12
|
|
SCOREINIT:360,1260
|
|
SCOREDIFF:73
|
|
|
|
#START
|
|
00000001,
|
|
01211121,
|
|
21211112,
|
|
01211121,
|
|
200100200100200010000100,
|
|
|
|
2000201005000000,
|
|
000000000000000000000000000008000000000000000000,
|
|
21211121,
|
|
1020102010101101, //9
|
|
|
|
1000201007000000,
|
|
00000800,
|
|
21211121,
|
|
12121112,
|
|
|
|
01212211,
|
|
21212122,
|
|
01212211,
|
|
2010201020201110, //17
|
|
|
|
1000201005000000,
|
|
000000000000000000000000000008000000000000000000,
|
|
21211121,
|
|
1020102010101110,
|
|
|
|
2000201007000000,
|
|
00000800,
|
|
21211121,
|
|
20201112, //25
|
|
|
|
11101110,
|
|
11101110,
|
|
1011100010111000,
|
|
1011100010111000,
|
|
|
|
1011101010111010,
|
|
1011101010111010,
|
|
20121210,
|
|
1020102010111000, //33
|
|
|
|
2220200022202000,
|
|
1110100011101000,
|
|
2220200022202000,
|
|
1010200011011020,
|
|
|
|
2022200020222000,
|
|
1011100010111000,
|
|
1011101010111010,
|
|
70000082, //41
|
|
|
|
01221112,
|
|
0010101110101020,
|
|
01211120,
|
|
1010111010111010,
|
|
|
|
70000008,
|
|
1011011011011010,
|
|
100000100000100000100000500000000000000000000008,
|
|
02111222, //49
|
|
|
|
1010111010102010,
|
|
12112112,
|
|
11111112,
|
|
70000082,
|
|
|
|
01221012,
|
|
11201112,
|
|
7,
|
|
0, //57
|
|
|
|
00008111,
|
|
1011101110111500,
|
|
000000000000000008000000100000100000200000000000,
|
|
1010202010222020,
|
|
|
|
01221121,
|
|
0010202010102011,
|
|
1010202010102011,
|
|
1010201110102220, //65
|
|
|
|
01227000,
|
|
00821012,
|
|
000000000000500000000000000000000008000000600000,
|
|
000000000000000008000000100000100000100000200000,
|
|
|
|
01201211,
|
|
20201112,
|
|
01201121,
|
|
20201112, //73
|
|
|
|
01201211,
|
|
2000200011101110,
|
|
10101121,
|
|
2010201020011020,
|
|
01010121,
|
|
20202112, //79
|
|
|
|
#GOGOSTART
|
|
1110101110101011,
|
|
1011101010111000,
|
|
2020101110101010,
|
|
2020101110111000,
|
|
|
|
22112211,
|
|
1011101010111020,
|
|
11221121,
|
|
2010201110111000, //87
|
|
|
|
1110101020201011,
|
|
1010102010111010,
|
|
200200100200100010001000,
|
|
2020222000201070,
|
|
|
|
0,
|
|
08121012,
|
|
11202121,
|
|
2010201010111000, //95
|
|
|
|
1010201011101010,
|
|
2010111011101020,
|
|
000100200200007000000000,
|
|
00081112,
|
|
|
|
00221102,
|
|
12012012,
|
|
12121122,
|
|
100000100000500000000000000000000008000000100000, //103
|
|
|
|
1110101022202020,
|
|
11270000,
|
|
00081111,
|
|
22221021,
|
|
|
|
02102102,
|
|
12121011,
|
|
2010002010102002,
|
|
0010002011102220, //111
|
|
#GOGOEND
|
|
|
|
11010121,
|
|
20202114,
|
|
0,
|
|
0, //115
|
|
#END
|
|
|
|
|
|
COURSE:Normal
|
|
LEVEL:7
|
|
BALLOON:9,9,33,7,6,22,6,11,18,8
|
|
SCOREINIT:480,1990
|
|
SCOREDIFF:98
|
|
|
|
#START
|
|
00000001,
|
|
01201120,
|
|
11201012,
|
|
01201120,
|
|
100100200000100010000100,
|
|
|
|
1000101005000000,
|
|
000000000000000000000000000008000000000000000000,
|
|
11201120,
|
|
11010111, //9
|
|
|
|
1000101007000000,
|
|
00000800,
|
|
11201120,
|
|
11010112,
|
|
|
|
00202220,
|
|
20202222,
|
|
00202220,
|
|
20202220, //17
|
|
|
|
1000101005000000,
|
|
000000000000000000000000000008000000000000000000,
|
|
11201120,
|
|
11010111,
|
|
|
|
1000101007000000,
|
|
00000800,
|
|
11201120,
|
|
20201210, //25
|
|
|
|
11101110,
|
|
11101110,
|
|
11201120,
|
|
11201120,
|
|
|
|
22102210,
|
|
22102210,
|
|
2211,
|
|
20201012, //33
|
|
|
|
01201021,
|
|
10201012,
|
|
01201021,
|
|
10201012,
|
|
|
|
7,
|
|
0,
|
|
0,
|
|
00000812, //41
|
|
|
|
00221012,
|
|
0000100100500000,
|
|
000000000000000000000000000000000008000000000000,
|
|
22202010,
|
|
|
|
70000008,
|
|
11010101,
|
|
100000100000100000100000500000000000000000000008,
|
|
02002220, //49
|
|
|
|
10111021,
|
|
02102102,
|
|
10111012,
|
|
70000082,
|
|
|
|
02202022,
|
|
20202222,
|
|
7,
|
|
0, //57
|
|
|
|
00008110,
|
|
11101150,
|
|
000000000008000000000000200000200000200000000000,
|
|
11101012,
|
|
|
|
00202220,
|
|
00202022,
|
|
02202220,
|
|
22202022, //65
|
|
|
|
01207000,
|
|
00801012,
|
|
000000000000500000000000000000000008000000600000,
|
|
000000000000000000000000000008000000100000200000,
|
|
|
|
01201010,
|
|
20200012,
|
|
01201010,
|
|
20201012, //73
|
|
|
|
01201010,
|
|
20201110,
|
|
20101120,
|
|
2000200020020020,
|
|
01010110,
|
|
2220, //79
|
|
|
|
#GOGOSTART
|
|
11201020,
|
|
11201020,
|
|
22102010,
|
|
22102010,
|
|
|
|
12102010,
|
|
12102010,
|
|
21201020,
|
|
21201012, //87
|
|
|
|
01101020,
|
|
10101012,
|
|
01101010,
|
|
22200117,
|
|
|
|
0,
|
|
08111022,
|
|
20202022,
|
|
02202220, //95
|
|
|
|
10111110,
|
|
10117000,
|
|
0,
|
|
00008012,
|
|
|
|
00111101,
|
|
12012012,
|
|
02220111,
|
|
100000100000500000000000000000000008000000100000, //103
|
|
|
|
01101110,
|
|
11170000,
|
|
00082220,
|
|
22201002,
|
|
|
|
00100201,
|
|
10102022,
|
|
0010001010001001,
|
|
02020202, //111
|
|
#GOGOEND
|
|
|
|
01010110,
|
|
20202014,
|
|
0,
|
|
0, //115
|
|
#END
|
|
|
|
|
|
COURSE:Easy
|
|
LEVEL:5
|
|
BALLOON:7,7,25,27,21,5,18,11,9,14,7
|
|
SCOREINIT:620,4710
|
|
SCOREDIFF:118
|
|
|
|
#START
|
|
00000001,
|
|
01,
|
|
10201002,
|
|
01,
|
|
1210,
|
|
|
|
1000000005000000,
|
|
000000000000000000000000000008000000000000000000,
|
|
1210,
|
|
1, //9
|
|
|
|
1000000007000000,
|
|
00000800,
|
|
1210,
|
|
10000002,
|
|
|
|
02,
|
|
20002002,
|
|
02,
|
|
22, //17
|
|
|
|
1000000005000000,
|
|
000000000000000000000000000008000000000000000000,
|
|
1210,
|
|
1,
|
|
|
|
1000000007000000,
|
|
00000800,
|
|
1210,
|
|
2210, //25
|
|
|
|
1110,
|
|
1110,
|
|
1210,
|
|
1210,
|
|
|
|
2120,
|
|
2120,
|
|
21,
|
|
20001007, //33
|
|
|
|
0,
|
|
0,
|
|
0,
|
|
0811,
|
|
|
|
7,
|
|
0,
|
|
0,
|
|
00000802, //41
|
|
|
|
00001002,
|
|
00100500,
|
|
000000000000000000000000000000000008000000000000,
|
|
2220,
|
|
|
|
7,
|
|
0,
|
|
000000000000000000000000000000000000000000080000,
|
|
02002000, //49
|
|
|
|
10001001,
|
|
00100100,
|
|
1111,
|
|
70000082,
|
|
|
|
02,
|
|
2022,
|
|
7,
|
|
0, //57
|
|
|
|
00008500,
|
|
0,
|
|
000000000008000000000000200000000000000000000000,
|
|
1110,
|
|
|
|
0202,
|
|
0202,
|
|
0202,
|
|
0202, //65
|
|
|
|
07,
|
|
0,
|
|
800000000000500000000000000000000008000000600000,
|
|
000000000000000000000000000008000000000000200000,
|
|
|
|
01,
|
|
20200002,
|
|
01,
|
|
20200002, //73
|
|
|
|
01,
|
|
2200,
|
|
2,
|
|
20002002,
|
|
0,
|
|
22, //79
|
|
|
|
#GOGOSTART
|
|
1110,
|
|
1110,
|
|
2220,
|
|
2220,
|
|
|
|
1120,
|
|
1120,
|
|
1220,
|
|
10202002, //87
|
|
|
|
01,
|
|
10100002,
|
|
01,
|
|
10100007,
|
|
|
|
0,
|
|
08002020,
|
|
20002002,
|
|
0220, //95
|
|
|
|
1011,
|
|
0170,
|
|
0,
|
|
00008002,
|
|
|
|
0110,
|
|
11,
|
|
02020000,
|
|
100000000000500000000000000000000000000000000008, //103
|
|
|
|
0101,
|
|
10070000,
|
|
00082000,
|
|
20001002,
|
|
|
|
00000100,
|
|
12,
|
|
01001000,
|
|
02000200, //111
|
|
#GOGOEND
|
|
|
|
01010100,
|
|
20002004,
|
|
0,
|
|
0, //115
|
|
#END |