Files

516 lines
6.4 KiB
Plaintext
Raw Permalink Blame History

This file contains ambiguous Unicode characters
This file contains Unicode characters that might be confused with other characters. If you think that this is intentional, you can safely ignore this warning. Use the Escape button to reveal them.
//TJADB Project
TITLE:Do-Dai -New Audio/Chart-
TITLEJA:Do-Dai
SUBTITLE:--Koji Nakagawa feat. 765PRO ALLSTARS/THE iDOLM@STER: Live for You!
SUBTITLEJA:新音源・譜面 「アイドルマスター2」より
BPM:171
WAVE:DoDai.ogg
OFFSET:-1.744
DEMOSTART:92.972
SCENEPRESET:IMAS_ML
//Vita MS Chart
COURSE:Oni
LEVEL:7
BALLOON:
SCOREINIT:480,1580
SCOREDIFF:125
#START
1000001110000020,
02222000,
1000001110000020,
02222000,
1000001110000011,
1000001110202000,
1000001110200030,
03030305, //8
000000000000000000000000000000000000000000000008,
0,
0,
0040400040400011,
1011101110111011,
2011201120112012,
2012201220122022,
24404400,
33033033,
03303220, //18
1020102011102020,
1020102011102020,
11201121,
0010200011102000,
1020102011102020,
1020102011102020,
1010200011102010,
0011201110002222, //26
1020102010112020,
1020102010112020,
11201121,
0010200011102000,
1020102010112020,
1020102010112020,
30303305,
000000000000000000000000000000000008000000000000, //34
10222020,
10022000,
10022020,
10022220,
10022021,
0010001000222000, //40
12121210,
12121210,
12121212,
1022102010221000,
5,
000000000000000000000008000000000000000000000000,
10111122,
3340, //48
#GOGOSTART
1022102010221020,
1011101011111020,
1022102010221020,
1011101011111020,
10201120,
10210120,
1110200011102000,
1110201000002000, //56
1022102010221020,
1011101011111020,
1022102010221020,
1011101011111020,
2002002000101022,
2002002000101022,
2002002000101000, //63
#GOGOEND
30000003,
33404000, //65
#GOGOSTART
1022102010221020,
1022202011111020,
1022102010221020,
1022202011111020,
10201120,
1000201000112000,
1110200011102000,
1110201000202000, //73
1022102010221020,
1022202011111020,
1022102010221020,
1022202011111020,
2002112000101020,
2002112000101020,
2002112000303000,
4400, //81
1000002010000022,
1022102210004000,
1000002010000022,
1022102210404000,
1000002010000020,
12121030,
#GOGOEND
0,
0,
0, //90
#END
COURSE:Hard
LEVEL:5
BALLOON:8
SCOREINIT:500,2210
SCOREDIFF:140
#START
0,
0,
10011000,
20022000,
10011000,
20022000,
10011103,
03030306, //8
000000000000000000000000000000000000000000000008,
0,
0,
03304400,
10201120,
10201120,
10201120,
03304400,
33033033,
03303000, //18
10210220,
12010220,
10101011,
01101010,
10210220,
12010220,
10101103,
04444000, //26
10210220,
12010220,
10101011,
01101010,
10210220,
12010220,
10101107,
00000800, //34
500000000000000000000008000000000000200000000000,
500000000000000000000008000000000000200000000000,
500000000000000000000008000000000000200000000000,
500000000000000000000008000000000000200000000000,
500000000000000000000000000008000000000000300000,
03030000, //40
10210120,
10210120,
10210120,
10210121,
20201122,
12212000,
10221122,
3340, //48
#GOGOSTART
11221122,
01221122,
11221122,
01221122,
10212020,
10210120,
11201120,
11220040, //56
11221122,
01221122,
11221122,
01221122,
500000000000000008000000000000300000300000000000,
500000000000000008000000000000400000400000000000,
500000000000000008000000000000300000300000000000, //63
#GOGOEND
40000004,
44303000, //65
#GOGOSTART
11221122,
01221122,
11221122,
01221122,
10212020,
10210120,
11221120,
10220440, //73
11221122,
01221122,
11221122,
01221122,
500000000000000008000000000000300000300000000000,
500000000000000008000000000000400000400000000000,
500000000000000008000000000000300000300000000000,
44400000, //81
10021002,
1114,
10021002,
10101440,
10021002,
3334,
#GOGOEND
0,
0,
0, //90
#END
COURSE:Normal
LEVEL:5
BALLOON:8,6
SCOREINIT:760,4120
SCOREDIFF:258
#START
0,
0,
0,
00000001,
0011,
0,
10001003,
03030306, //8
000000000000000000000000000000000000000000000008,
0,
0,
03304400,
0202,
0202,
0202,
03304400,
900000000000000000000000000000000009000000000008,
0, //18
11,
2220,
10101005,
000000000000000000000000000008000000000000000000,
11,
2220,
10101003,
04444000, //26
11,
2220,
10101005,
000000000000000000000000000008000000000000000000,
11,
2220,
10101007,
00000800, //34
500000000000000000000008000000000000200000000000,
500000000000000000000008000000000000200000000000,
500000000000000000000008000000000000200000000000,
500000000000000000000008000000000000200000000000,
500000000000000000000000000008000000000000300000,
03030000, //40
0101,
0202,
0101,
0202,
500000000000000000000000000000000000000000000008,
0,
0,
3340, //48
#GOGOSTART
1111,
1110,
1111,
1110,
0101,
00110000,
0202,
00220040, //56
1111,
1110,
1111,
1110,
500000000000000008000000000000300000300000000000,
500000000000000008000000000000400000400000000000,
500000000000000008000000000000300000300000000000, //63
#GOGOEND
4,
0330, //65
#GOGOSTART
1122,
1110,
1122,
1110,
0101,
00110000,
0202,
00220440, //73
1122,
1110,
1122,
1110,
500000000000000008000000000000300000300000000000,
500000000000000008000000000000400000400000000000,
500000000000000008000000000000300000300000000000,
0, //81
11,
1114,
11,
10101440,
11,
3334,
#GOGOEND
0,
0,
0, //90
#END
COURSE:Easy
LEVEL:4
BALLOON:7,4,6
SCOREINIT:540,4840
SCOREDIFF:180
#START
0,
0,
0,
00000001,
0011,
0,
10001003,
03030306, //8
000000000000000000000000000000000000000000000008,
0,
0,
03303300,
0202,
0202,
0202,
03303300,
900000000000000000000000000000000009000000000008,
0, //18
11,
22,
10101005,
000000000000000000000000000008000000000000000000,
11,
22,
1111,
07000800, //26
11,
22,
10101005,
000000000000000000000000000008000000000000000000,
11,
22,
10101007,
00000800, //34
500000000000000000000008000000000000200000000000,
500000000000000000000008000000000000200000000000,
500000000000000000000008000000000000200000000000,
500000000000000000000008000000000000200000000000,
500000000000000000000000000008000000000000300000,
03030000, //40
0101,
0101,
0101,
0101,
500000000000000000000000000000000000000000000008,
0,
0,
3340, //48
#GOGOSTART
11,
1110,
11,
1110,
0202,
0202,
0101,
0104, //56
11,
1110,
11,
1110,
00000330,
00000440,
00000330, //63
#GOGOEND
0,
0330, //65
#GOGOSTART
11,
1110,
11,
1110,
0202,
0202,
0101,
00100440, //73
11,
1110,
11,
1110,
00000330,
00000440,
00000330,
0, //81
11,
1114,
11,
1114,
11,
3334,
#GOGOEND
0,
0,
0, //90
#END