Files
2023-06-15 19:00:23 -05:00

648 lines
23 KiB
Plaintext

//TJADB Project
TITLE:Dual Moon
TITLEJA:Dual Moon
SUBTITLE:--Yasuhisa Watanabe/METAL BLACK
BPM:145.1
WAVE:Dual Moon.ogg
OFFSET:-3.692
DEMOSTART:119.379
COURSE:Oni
LEVEL:9
BALLOON:50
SCOREINIT:430
SCOREDIFF:103
#START
000000000000000000000000000000000000000000000000,
000000000000000000000000000000000000000000000000,
000000000000000000000000000000000000000000000000,
000000000000000000000000000000000000000000000000,
000000000000000000000000000000000000000000000000,
000000000000000000000000000000000000000000000000,
200000000000000000000000000000000000000000000000,
000000000000000000000000000000000000000000000000,
#BPMCHANGE 145.65
000000000000000000000000100100000100000000000000,
#BPMCHANGE 144.8
100100000100000000000000100100100000100100000000,
#BPMCHANGE 144.86
100100000100000100100000100000200100100200100000,
100100000100000100100000100000000000100100100000,
#BPMCHANGE 145.27
100100000100000100100000100000200100100200100000,
100100000100000100100000100100200100100200100000,
#BPMCHANGE 144.96
100100000100000100100000100000200100100200000000,
#BPMCHANGE 145.54
100100000100000100100000100000000100200100100000,
100100000100000000200200000000100000000100200100,
#BPMCHANGE 144.9
100100000100000100100000100000000100100100100000,
100100000100000100100000100000200100100200000000,
100100000100000100100000100100200100100200100000,
#BPMCHANGE 145.81
100100000100000200200000100200000100000100200100,
#BPMCHANGE 144.76
100100000100000100100000100000000100100100100000,
100100000100000100100000100000200100100200000000,
#BPMCHANGE 145.63
100100000100000100100000100000000100200100100000,
#BPMCHANGE 145.42
100100000100000000200200000000100000000100200100,
#BPMCHANGE 144.41
100100000100000100100000100000000100200100100000,
#BPMCHANGE 145.24
100100000100000100100000100000200100100200000000,
100100000100000100100000100100200100100200100000,
100100000200000200100000100200000100000100200100,
100100000100000000200200100000200000200100100000,
#GOGOSTART
100100000200000100100000100000200000100100100000,
#BPMCHANGE 145.53
100100000200000100100000100000200000200200100000,
#BPMCHANGE 144.9
100100000200000100100000100000200000100100100000,
#BPMCHANGE 145.41
100100000200000200000200000000100000200200100000,
100100000200000100100000100000200000100100100000,
100100000200000100100000100000200000200200100000,
#BPMCHANGE 145.03
100100000200000100100000100000200000100100100000,
#BPMCHANGE 144.94
100100000200000200000200000000100000200200100000,
#BPMCHANGE 145.86
100100000200000100100000100000200000100100100000,
#BPMCHANGE 145.26
100100000200000100100000100000200000200200100000,
100100000200000100100000100000200000100100100000,
100100000200000200000200000000100000200200100000,
100100000200000100100000100000200000100100100000,
100100000200000100100000100000200000200200100000,
100100000200000100100000100000200000100100100000,
500000000000000000000000000000000000000008000000,
100200000100000100200000100000100100200200100000,
100200000100000100200000100000200200100200100000,
100200000100000100200000100000100100200200100000,
100200000100000200000100000000100000200000200000,
100200000100000100200000100000100100200200100000,
#BPMCHANGE 145.54
100200000100000000200200100000000100000100100000,
#BPMCHANGE 145.15
100200000100000100200000100000200200100200100000,
100200000100000200000100100000100000200000200000,
#BPMCHANGE 145.67
700000000000000000000000000000000000000000000000,
#GOGOEND
000000000000000000000000000000000000000000000000,
#BPMCHANGE 145.73
000000000000000000000000000000000000000000000000,
#BPMCHANGE 144.56
000800000000000000000000000000000000000000000000,
#BPMCHANGE 145.23
200000000000000000200000000000200000000000000000,
#BPMCHANGE 145.26
000000000000000000200000000000000000000000000000,
200000000000000000000000000000000000000000000000,
200200000200000200000200000000200000000000000000,
200000000000000000200000000000200000000000000000,
000000000000000000200000000000000000000000000000,
200000000000000000000000000000000000000000000000,
200200000200000200000200000000200000000000000000,
200000000000000000200000000000200000000000000000,
000000000000000000200000000000000000000000000000,
200000000000000000000000000000000000000000000000,
#BPMCHANGE 143.97
200200000100000100100200100000200000101010100100,
#BPMCHANGE 144.78
#GOGOSTART
100100000200000000100100200100000100000100100000,
100100000200000000100100200100000100000100100000,
#BPMCHANGE 145.41
200200000200000000200200100200000200000100200000,
#BPMCHANGE 145.08
200200000200000000200200100200000200000100200000,
100100000200000000100100200100000100000100100000,
#BPMCHANGE 145.5
100100000200000000100100200100000100000100100000,
#BPMCHANGE 145.03
200200000200000000200200100200000200000100200000,
200200000200000000200200100200000200000100200000,
#BPMCHANGE 145.16
100100000200000000100100200100000100000100100000,
100100000200000000100100200100100200100100200000,
200200000200000000200200100200000200000100200000,
200200000200000000200200100200000200000100200000,
100100000200000000100100200100000100000100200000,
100100000200000000100100200100100200100100200000,
#BPMCHANGE 144.91
200200000200000000200200100200000200000100200000,
#BPMCHANGE 145.41
200200000200000000200200100200000200000100200000,
#BPMCHANGE 145.16
100100000200000100100100200100000100100100200000,
100100000200000100100100200100000100100100200000,
200200000200000200200200100200000200100100200000,
#BPMCHANGE 144.79
200200000200000200200200100200000200100100200000,
#BPMCHANGE 145.25
100100000200000100100100200100000100100100200000,
100100000200000100100100200100000100100100200000,
200200000200000200200200100200000200200100200000,
100100200100000100200000200200100100200200200200,
#BARLINEOFF
#MEASURE 1/16
#BPMCHANGE 145.16
1,
#BPMCHANGE 72.58
#SCROLL 0.5
3,
#BPMCHANGE 5
1,
#GOGOEND
#END
COURSE:Hard
LEVEL:7
BALLOON:40
SCOREINIT:480
SCOREDIFF:123
#START
000000000000000000000000000000000000000000000000,
000000000000000000000000000000000000000000000000,
000000000000000000000000000000000000000000000000,
000000000000000000000000000000000000000000000000,
000000000000000000000000000000000000000000000000,
000000000000000000000000000000000000000000000000,
200000000000000000000000000000000000000000000000,
000000000000000000000000000000000000000000000000,
#BPMCHANGE 146.11
000000000000000000000000100100000100000000000000,
#BPMCHANGE 144.77
100100000100000000000000100100100000100100000000,
#BPMCHANGE 144.76
100100000100000100100000100000100000000000000000,
100100000100000100100000000000000000100100100000,
#BPMCHANGE 144.97
100100000100000100100000100000100000000000000000,
100100000100000100100000000000000000000000000000,
#BPMCHANGE 144.87
100100000100000100100000100000200000000000000000,
#BPMCHANGE 145.45
100100000100000100100000100000100000200000000000,
100100000100000000200200000000000000000000000000,
#BPMCHANGE 144.80
100100000100000100100000000000000000000000000000,
100100000100000100100000100000200000000000000000,
100100000100000100100000100000100000200000000000,
#BPMCHANGE 145.71
100100000100000200200000100100000200000000000000,
#BPMCHANGE 144.66
100100000100000100100000000000000000000000000000,
100100000100000100100000100000200000000000000000,
#BPMCHANGE 145.53
100100000100000100100000100000100000200000000000,
#BPMCHANGE 145.32
100100000100000000200200000000000000000000000000,
#BPMCHANGE 144.31
100100000100000100100000000000000000000000000000,
#BPMCHANGE 145.13
100100000100000100100000100000200000000000000000,
100100000100000100100000100000100000200000000000,
100100000100000200000000100100000200000000000000,
100000000000000000000000000000000000000000000000,
#GOGOSTART
100100000100000000100000100000100000000000000000,
#BPMCHANGE 145.43
100100000100000000100000100000200000100100100000,
#BPMCHANGE 144.81
100100000100000000100000100000100000000000000000,
#BPMCHANGE 145.31
100100000100000100000100000000100000200200200000,
100100000100000000100000100000100000000000000000,
100100000100000000100000100000200000100100100000,
#BPMCHANGE 144.93
100100000100000000100000100000100000000000000000,
#BPMCHANGE 144.86
100100000100000100000100000000100000200200200000,
#BPMCHANGE 145.76
100100000100000000100000100000100000000000000000,
#BPMCHANGE 145.17
100100000100000000100000100000200000100100100000,
100100000100000000100000100000100000000000000000,
100100000100000100000100000000100000200200200000,
100100000100000000100000100000100000000000000000,
100100000100000000100000100000200000000000000000,
100100000100000000100000100000100000000000000000,
500000000000000000000000000000000000000800000000,
100100000100000000100000000000100000100100100000,
100100000100000000100000000000100100100100100000,
100100000100000000100000000000100000100100100000,
100100000100000100000100000000100000200000200000,
100100000100000000100000000000100000100100100000,
#BPMCHANGE 145.3
100100000100000000200200000000000000000000000000,
#BPMCHANGE 145.17
100100000100000000100000000000100000100100100000,
100100000100000100000100000000100000200000200000,
#BPMCHANGE 145.17
700000000000000000000000000000000000000000000000,
#GOGOEND
000000000000000000000000000000000000000000000000,
#BPMCHANGE 145.67
000000000000000000000000000000000000000000000800,
#BPMCHANGE 144.35
000000000000000000000000000000000000000000000000,
#BPMCHANGE 144.77
200000000000000000200000000000200000000000000000,
#BPMCHANGE 145.17
000000000000000000200000000000000000000000000000,
200000000000000000000000000000000000000000000000,
200200000200000200000200000000200000000000000000,
200000000000200000200000000000200000000000000000,
000000000000000000200000000000000000000000000000,
200000000000000000000000000000000000000000000000,
200200000200000200000200000000200000000000000000,
200000000000000000200000000000200000000000000000,
000000000000000000200000000000000000000000000000,
200000000000000000000000000000000000000000000000,
#BPMCHANGE 144.56
500000000000000000000000000000000800000000000000,
#GOGOSTART
#BPMCHANGE 144.93
100100000100000000000000100100000100000000000000,
100100000100000000000000100100000100000000000000,
100100000100000000000000200200000200000000000000,
100100000100000000000000200200000200000000000000,
100100000100000000000000100100000100000000000000,
100100000100000000000000100100000100000000000000,
100100000100000000000000200200000200000000000000,
100100000100000000000000200200000200000000000000,
#BPMCHANGE 145.06
100100000100000000100000100100000100000000000000,
100100000100000000100000100100000100000000000000,
100100000100000000100000200200000200000000000000,
100100000100000000100000200200000200000000000000,
100100000100000000100000100100000100000000000000,
100100000100000000100000100100000100000000000000,
100100000100000000100000200200000200000000000000,
100100000100000000100000200200000200000000000000,
100100000100000000100000100100000100000000100000,
100100000100000000100000100100000100000000100000,
100100000100000000100000200200000200000000200000,
100100000100000000100000200200000200000000200000,
100100000100000000100000100100000100000000100000,
100100000100000000100000100100000100000000100000,
100100000100000000100000200200000200000000200000,
100100000100000000100100200200000200000000200000,
#BPMCHANGE 145.06
100100000300000000000000000000000000000000000000,
#GOGOEND
000000000000000000000000000000000000000000000000,
000000000000000000000000000000000000000000000000,
#GOGOSTART
#BARLINEOFF
#MEASURE 1/16
#BPMCHANGE 145.16
1,
#BPMCHANGE 72.58
#SCROLL 0.5
3,
#BPMCHANGE 5
1,
#GOGOEND
#END
COURSE:Normal
LEVEL:6
BALLOON:35,25
SCOREINIT:940
SCOREDIFF:313
#START
000000000000000000000000000000000000000000000000,
000000000000000000000000000000000000000000000000,
000000000000000000000000000000000000000000000000,
000000000000000000000000000000000000000000000000,
000000000000000000000000000000000000000000000000,
000000000000000000000000000000000000000000000000,
200000000000000000000000000000000000000000000000,
000000000000000000000000000000000000000000000000,
#BPMCHANGE 146.11
000000000000000000000000100000000000000000000000,
#BPMCHANGE 144.77
100000000000000000000000000000000000000000000000,
#BPMCHANGE 144.76
100000000100000000100000000000000000000000000000,
100000000100000000100000000000000000000000000000,
#BPMCHANGE 144.97
100000000100000000100000000000000000000000000000,
100000000100000000100000000000000000000000000000,
#BPMCHANGE 144.87
100000000200000000100000000000000000000000000000,
#BPMCHANGE 145.45
100000000000000000000000000000000000000000000000,
100000000100000000200200000000000000000000000000,
#BPMCHANGE 144.80
100000000100000000100000000000000000000000000000,
100000000200000000100000000000000000000000000000,
100000000000000000000000000000000000000000000000,
#BPMCHANGE 145.71
300000000000000000000000400000000000000000000000,
#BPMCHANGE 144.66
100100000100000000100000000000000000000000000000,
100000000200000000100000000000000000000000000000,
#BPMCHANGE 145.53
100000000000000000000000000000000000000000000000,
#BPMCHANGE 145.32
100000000100000000200200000000000000000000000000,
#BPMCHANGE 144.31
100000000100000000100000000000000000000000000000,
#BPMCHANGE 145.13
100000000200000000100000000000000000000000000000,
100000000000000000000000000000000000000000000000,
300000000000000000000000400000000000000000000000,
100000000000000000000000000000000000000000000000,
#GOGOSTART
100100000100000000000000100000000000000000000000,
#BPMCHANGE 145.43
000000100000100000000000100000000000000000000000,
#BPMCHANGE 144.81
500000000000000000000000000000000800000000000000,
#BPMCHANGE 145.31
000000000000000000000000000000000000000000000000,
100000000000000000000000000000000000000000000000,
100000000000000000000000100000100000000000000000,
#BPMCHANGE 144.93
100000000000000000000000100000000000000000000000,
#BPMCHANGE 144.86
100000000000100000000000100000000000000000000000,
#BPMCHANGE 145.76
100100000100000000000000100000000000000000000000,
#BPMCHANGE 145.17
000000100000100000000000100000000000000000000000,
500000000000000000000000000000000800000000000000,
000000000000000000000000000000000000000000000000,
100000000000000000000000000000000000000000000000,
100000000100000000100000100000000000000000000000,
100000000100000000100000200000000000000000000000,
300000000000000000300000000000000000000000000000,
100000000000000000000000000000100000100000000000,
100000000100000000100000000000000000000000000000,
100000000000000000000000100000000000000000500000,
000000000000000800000000000000000000000000000000,
100000000100000000100000100000000000000000000000,
#BPMCHANGE 145.3
000000000000000000200200000000000000000000000000,
#BPMCHANGE 145.17
100000000000000000100000100000000000000000000000,
100000000000000000100100100000000000100000000000,
#BPMCHANGE 145.17
700000000000000000000000000000000000000000000000,
#GOGOEND
000000000000000000000000000000000000000000000000,
#BPMCHANGE 145.67
000000000000000000000000000000000000000000800000,
#BPMCHANGE 144.35
000000000000000000000000000000000000000000000000,
#BPMCHANGE 144.77
200000000000000000200000000000200000000000000000,
#BPMCHANGE 145.17
000000000000000000200000000000000000000000000000,
200000000000000000000000000000000000000000000000,
200000000000000000000000000000200000000000000000,
200000000000000000200000000000200000000000000000,
000000000000000000200000000000000000000000000000,
200000000000000000000000000000000000000000000000,
200000000000000000000000000000200000000000000000,
200000000000000000200000000000200000000000000000,
000000000000000000200000000000000000000000000000,
200000000000000000000000000000000000000000000000,
#BPMCHANGE 144.56
000000000000000000000000000000000000000000000000,
#GOGOSTART
#BPMCHANGE 144.93
100000000000000000100000100000000100000000000000,
100000000000000000100000100000000100000000000000,
200000000000000000200000200000000200000000000000,
200000000000000000200000200000000000000000000000,
100000000000000000100000100000000100000000000000,
100000000100000000000000000000000000000000000000,
100000000100000000000000200000000100000000000000,
100000000100000000000000200000000200000000000000,
#BPMCHANGE 145.06
000000000000000000000000000000000000000000000000,
100000000100000000000000000000000000000000000000,
100000000100000000000000200000000100000000000000,
100000000100000000000000200000000200000000000000,
000000000000000000000000000000000000000000000000,
100000000100000000000000000000000000000000000000,
100000000100000000000000200000000100000000000000,
100000000100000000000000200000000200000000000000,
000000000000000000000000000000000000000000000000,
700000000000000000000000000000000000000000000000,
000000000000000000000000000000000000000000000800,
000000000000000000000000000000000000000000000000,
100000000000000000100000100000000100000000000000,
100000000000000000100000100000000100000000000000,
200000000000000000200000200000000200000000000000,
100000000100000000100000100000000100000000000000,
#BPMCHANGE 145.06
300000000400000000000000000000000000000000000000,
#GOGOEND
000000000000000000000000000000000000000000000000,
000000000000000000000000000000000000000000000000,
#GOGOSTART
#BARLINEOFF
#MEASURE 1/16
#BPMCHANGE 145.16
3,
#BPMCHANGE 72.58
#SCROLL 0.5
,
#BPMCHANGE 5
1,
#END
COURSE:Easy
LEVEL:4
BALLOON:30,20
SCOREINIT:710
SCOREDIFF:258
#START
000000000000000000000000000000000000000000000000,
000000000000000000000000000000000000000000000000,
000000000000000000000000000000000000000000000000,
000000000000000000000000000000000000000000000000,
000000000000000000000000000000000000000000000000,
000000000000000000000000000000000000000000000000,
200000000000000000000000000000000000000000000000,
000000000000000000000000000000000000000000000000,
#BPMCHANGE 146.11
000000000000000000000000100000000000000000000000,
#BPMCHANGE 144.77
100000000000000000000000000000000000000000000000,
#BPMCHANGE 144.76
100000000100000000100000000000000000000000000000,
100000000100000000100000000000000000000000000000,
#BPMCHANGE 144.97
100000000100000000100000000000000000000000000000,
100000000100000000100000000000000000000000000000,
#BPMCHANGE 144.87
100000000100000000200000000000000000000000000000,
#BPMCHANGE 145.45
100000000000000000000000000000000000000000000000,
100000000100000000000000000000000000000000000000,
#BPMCHANGE 144.80
100000000000000000000000000000000000000000000000,
100000000100000000200000000000000000000000000000,
100000000000000000000000000000000000000000000000,
#BPMCHANGE 145.71
100000000000000000000000100000000000000000000000,
#BPMCHANGE 144.66
300000000000000000000000000000000000000000000000,
100000000100000000200000000000000000000000000000,
#BPMCHANGE 145.53
100000000000000000000000000000000000000000000000,
#BPMCHANGE 145.32
100000000100000000000000000000000000000000000000,
#BPMCHANGE 144.31
000000000000000000000000000000000000000000000000,
#BPMCHANGE 145.13
100000000100000000200000000000000000000000000000,
100000000000000000000000000000000000000000000000,
300000000000000000000000400000000000000000000000,
000000000000000000000000000000000000000000000000,
#GOGOSTART
100000000000100000000000200000000000000000000000,
#BPMCHANGE 145.43
000000100000000000000000100000000000100000000000,
#BPMCHANGE 144.81
500000000000000000000000000000800000000000000000,
#BPMCHANGE 145.31
000000000000000000000000000000000000000000000000,
100000000000000000000000000000000000000000000000,
100000000000000000000000100000000000100000000000,
#BPMCHANGE 144.93
100000000000000000000000100000000000000000000000,
#BPMCHANGE 144.86
100000000000100000000000100000000000000000000000,
#BPMCHANGE 145.76
100000000000100000000000200000000000000000000000,
#BPMCHANGE 145.17
000000100000000000000000100000000000100000000000,
500000000000000000000000000000800000000000000000,
000000000000000000000000000000000000000000000000,
100000000000000000000000000000000000000000000000,
100000000000000000000000200000000000000000000000,
100000000000000000000000200000000000000000000000,
300000000000000000000000000000000000000000000000,
100000000000000000000000000000100000100000000000,
100000000000000000000000000000000000000000000000,
100000000000000000000000100000000000000000500000,
000000000000800000000000000000000000000000000000,
100000000000000000000000100000000000000000000000,
#BPMCHANGE 145.3
000000000000000000200000000000000000000000000000,
#BPMCHANGE 145.17
100000000000000000000000100000000000000000000000,
100000000000000000000000100000000000100000000000,
#BPMCHANGE 145.17
700000000000000000000000000000000000000000000000,
#GOGOEND
000000000000000000000000000000000000000000000000,
#BPMCHANGE 145.67
000000000000000000000000000000000000000000800000,
#BPMCHANGE 144.35
000000000000000000000000000000000000000000000000,
#BPMCHANGE 144.77
200000000000000000200000000000000000000000000000,
#BPMCHANGE 145.17
000000000000000000200000000000000000000000000000,
200000000000000000000000000000000000000000000000,
200000000000000000000000000000000000000000000000,
200000000000000000200000000000000000000000000000,
000000000000000000200000000000000000000000000000,
200000000000000000000000000000000000000000000000,
200000000000000000000000000000000000000000000000,
200000000000000000200000000000000000000000000000,
000000000000000000200000000000000000000000000000,
200000000000000000000000000000000000000000000000,
#BPMCHANGE 144.56
000000000000000000000000000000000000000000000000,
#GOGOSTART
#BPMCHANGE 144.93
100000000000000000100000100000000000000000000000,
100000000000000000100000100000000000000000000000,
200000000000000000200000200000000000000000000000,
200000000000000000200000200000000000000000000000,
100000000000000000100000100000000000000000000000,
100000000000000000000000000000000000000000000000,
100000000000000000000000200000000000000000000000,
300000000000000000000000400000000000000000000000,
#BPMCHANGE 145.06
000000000000000000000000000000000000000000000000,
100000000000000000000000000000000000000000000000,
100000000000000000000000200000000000000000000000,
300000000000000000000000400000000000000000000000,
000000000000000000000000000000000000000000000000,
100000000000000000000000000000000000000000000000,
100000000000000000000000200000000000000000000000,
300000000000000000000000400000000000000000000000,
000000000000000000000000000000000000000000000000,
700000000000000000000000000000000000000000000000,
000000000000000000000000000000000000000000800000,
000000000000000000000000000000000000000000000000,
100000000000000000100000100000000000000000000000,
100000000000000000100000100000000000000000000000,
200000000000000000200000200000000000000000000000,
100000000000000000100000100000000000000000000000,
#BPMCHANGE 145.06
300000000000000000000000000000000000000000000000,
#GOGOEND
000000000000000000000000000000000000000000000000,
000000000000000000000000000000000000000000000000,
#GOGOSTART
#BARLINEOFF
#MEASURE 1/16
#BPMCHANGE 145.16
3,
#BPMCHANGE 72.58
#SCROLL 0.5
,
#BPMCHANGE 5
1,
#END