Files

401 lines
15 KiB
Plaintext
Raw Permalink Blame History

This file contains ambiguous Unicode characters
This file contains Unicode characters that might be confused with other characters. If you think that this is intentional, you can safely ignore this warning. Use the Escape button to reveal them.
//TJADB Project
TITLE:Fighter’s Honor -Flying Remix-
TITLEJA:Fighter's Honor (Flying Remix)
SUBTITLE:--Go Shiina/ACE COMBAT 2
BPM:145.58
WAVE:Fighters Honor Flying Remix.ogg
OFFSET:-1.997
DEMOSTART:28.296
COURSE:Oni
LEVEL:7
BALLOON:12,12
SCOREINIT:560
SCOREDIFF:143
#START
100000000000200000100000000000000000100000100000,
#BPMCHANGE 146.48
100000000000200000100000000000000000200000200000,
#BPMCHANGE 145.95
100000000000200000100000000000000000100000100000,
#BPMCHANGE 146.55
500000000000000000000000000000000008000000000000,
#BPMCHANGE 146
200200200000200000200200100100100000200000000000,
200200200000200000200200100100100000200000000000,
200200200000200000200200100100100000200200200000,
#BPMCHANGE 146.55
500000000000000000000000000000000008000000000000,
#GOGOSTART
#BPMCHANGE 146
100000100000200000000200100100100000200000100200,
100000100000200000000200100200100000200000200000,
100000100000200000000200100100100000200000100200,
100000100000200000000200100100100000200200200000,
100000100000200000000200100100100000200000100200,
100000100000200000000200100200100000200000200000,
100100100100100000000000300000000000200200200000,
100100100100100000000000300000000000200200200200,
100000100000200000000200100100100000200000100200,
100000100000200000000200100200100000200000200000,
100000100000200000000200100100100000200000100200,
100000100000200000000200100200100000200200200000,
100000100000200000000200100100100000200000100200,
100000100000200000000200100200100000200000200000,
100100100100100000000000400000000000200200200000,
100100100100100000000000400000000000200200200200,
#GOGOEND
#BPMCHANGE 145.79
700000000000000000000000000000000000800000000000,
#BPMCHANGE 146
200200200000200000000000200000000000200000000000,
700000000000000000000000000000000000800000000000,
200200200000200000000000200000000000200000000000,
100100100000100000000000100000000000100000000000,
200200200000200000000000200000000000200000000000,
100100100000100000000000100000000000100000000000,
200200200200100100200200100100200200100100200200,
100000100000000000100000200000000000200000100000,
000000000000100000000000200000000000100000000000,
100000100000000000100000200000000000200000100000,
000000000000100000000000200000000000000000200000,
100000100000000000100000200000000000200000100000,
500000000000000000000000000000000000000000000008,
000000000000100000000000100000000000100000000000,
100000100000000000100000200000000000200000100000,
100000000000100000000000200000000000100000000000,
100000100000000000100000200000000000200000000000,
300000000000300000000000300000000000300000000000,
100000200000200000200000200200200000200000200000,
100000100000200000200000100100100000200200200000,
100000200000200000200000200200200000200000200000,
100000100000200000200000100100100000200200200000,
200000000000200000000000200200200000200000000000,
200000000000200000000000100100200200100100200200,
100100100100100000000000400000000000000000000000,
100100100100100000000000400000000000000000000000,
#GOGOSTART
100000100000400000000200100100100000200000100200,
100000100000200000000200100200100000200000200000,
100000100000200000000200100100100000200000100200,
100000100000200000000200100200100000200200200000,
100000100000200000000200100100100000200000100200,
100000100000200000000200100200100000200000200000,
100100100100100000000000400000000000200200200000,
100100100100100000000000400000000000200200200200,
#GOGOEND
100000100000000000100000200000000000200000100000,
000000000000100000000000200000000000100000000000,
100000100000000000100000200000000000200000100000,
000000000000100000000000200000000000000000200000,
100000100000000000100000200000000000200000100000,
500000000000000000000000000000000000000000000008,
000000000000100000000000100000000000100000000000,
100000100000000000100000200000000000200000100000,
100000000000100000000000200000000000100000000000,
100000100000000000100000200000000000200000000000,
300000000000300000000000300000000000300000000000,
100000100000200000100100100000200200200000100100,
100000100000200000100100100000200200200000100100,
100000100000200000100100100000200200200000100100,
100000200000200000200200100100200000100200200000,
300000000000000000000000000000000000000000000000,
#END
COURSE:Hard
LEVEL:4
BALLOON:10,10,40
SCOREINIT:670
SCOREDIFF:185
#START
100000000000200000100000000000000000000000000000,
100000000000200000100000000000000000000000000000,
100000000000200000100000000000000000000000000000,
500000000000000000000000000000800000000000000000,
100000000000200000000000200200200000200000000000,
100000000000200000000000200200200000200000000000,
100000000000200000000000200200200000200000000000,
500000000000000000000000000000000800000000000000,
#GOGOSTART
100000000000200000000000100100100000200000000000,
100000000000200000000000100000100000200000000000,
100000000000200000000000100100100000200000000000,
100000000000200000000000100000000000000000000000,
100000000000200000000000100100100000200000000000,
100000000000200000000000100000100000200000000000,
100100100000100000000000300000000000000000000000,
100100100000100000000000300000000000000000000000,
100000000000200000000000100100100000200000000000,
100000000000200000000000100000100000200000000000,
100000000000200000000000100100100000200000000000,
100000000000200000000000100000000000000000000000,
100000000000200000000000100100100000200000000000,
100000000000200000000000100000100000200000000000,
100100100000100000000000400000000000000000000000,
100100100000100000000000400000000000000000000000,
#GOGOEND
700000000000000000000000000000000000800000000000,
200000000000200000000000200000000000200000000000,
700000000000000000000000000000000000800000000000,
200000000000200000000000200000000000200000000000,
9,
,
,
8,
100000100000000000100000200000000000200000100000,
000000000000100000000000200000000000000000000000,
100000100000000000100000200000000000200000100000,
000000000000100000000000200000000000000000200000,
100000100000000000100000200000000000200000100000,
500000000000000000000000000000000000000000800000,
000000000000100000000000100000000000100000000000,
100000100000000000100000200000000000200000100000,
100000000000100000000000200000000000100000000000,
100000100000000000100000200000000000200000000000,
300000000000300000000000300000000000000000000000,
100000000000200000000000000000000000200000000000,
100000000000200000000000000000000000200000000000,
100000000000200000000000000000000000200000000000,
100000000000200000000000000000000000200000000000,
200000000000200000000000200000200000200000000000,
200000000000200000000000200000200000200000000000,
200200200000200000000000400000000000000000000000,
200200200000200000000000400000000000000000000000,
#GOGOSTART
100000000000200000000000100100100000200000000000,
100000000000200000000000100000100000200000000000,
100000000000200000000000100100100000200000000000,
100000000000200000000000100000000000000000000000,
100000000000200000000000100100100000200000000000,
100000000000200000000000100000100000200000000000,
100100100000100000000000400000000000000000000000,
100100100000100000000000400000000000000000000000,
#GOGOEND
100000100000000000100000200000000000200000100000,
000000000000100000000000200000000000000000000000,
100000100000000000100000200000000000200000100000,
000000000000100000000000200000000000000000200000,
100000100000000000100000200000000000200000100000,
500000000000000000000000000000000000000000800000,
000000000000100000000000100000000000100000000000,
100000100000000000100000200000000000200000100000,
100000000000100000000000200000000000100000000000,
100000100000000000100000200000000000200000000000,
300000000000300000000000300000000000300000000000,
100000000000200000100000000000200000200000000000,
100000000000200000100000000000200000200000000000,
100000000000200000100000000000200000200000000000,
200200200000200000200200200000200000200000000000,
300000000000000000000000000000000000000000000000,
#END
COURSE:Normal
LEVEL:3
BALLOON:8,8,30,8,8
SCOREINIT:720
SCOREDIFF:215
#START
100000000000000000100000000000000000000000000000,
100000000000000000100000000000000000000000000000,
100000000000000000100000000000000000000000000000,
500000000000000000000000000000000080000000000000,
100000000000200000000000000000000000200000000000,
100000000000200000000000000000000000200000000000,
100000000000200000000000000000000000200000000000,
500000000000000000000000000000000080000000000000,
#GOGOSTART
100000000000100000000000100000100000100000000000,
100000000000100000000000100000000000000000000000,
100000000000100000000000200000000000200000000000,
100000000000100000000000100000000000000000000000,
100000000000100000000000100000100000100000000000,
100000000000100000000000100000000000000000000000,
100000100000100000000000300000000000000000000000,
100000100000100000000000300000000000000000000000,
100000000000100000000000100000100000100000000000,
100000000000100000000000100000000000000000000000,
100000000000100000000000200000000000200000000000,
100000000000100000000000100000000000000000000000,
100000000000100000000000100000100000100000000000,
100000000000100000000000100000000000000000000000,
100000100000100000000000400000000000000000000000,
100000100000100000000000400000000000000000000000,
#GOGOEND
700000000000000000000000000000000080000000000000,
500000000000000000000000000000000080000000000000,
700000000000000000000000000000000080000000000000,
500000000000000000000000000000000080000000000000,
9,
,
,
8,
100000000000000000000000200000000000200000000000,
100000000000100000000000200000000000000000000000,
100000000000000000000000200000000000200000000000,
100000000000100000000000200000000000000000000000,
100000000000000000000000200000000000200000000000,
500000000000000000000000000000000000000000000080,
000000000000100000000000100000000000100000000000,
100000100000000000000000200000000000100000000000,
100000000000000000000000200000000000100000000000,
100000100000000000000000200000000000200000000000,
300000000000300000000000300000000000000000000000,
100000000000200000000000000000000000200000000000,
100000000000200000000000000000000000200000000000,
100000000000200000000000000000000000200000000000,
100000000000200000000000000000000000200000000000,
200000000000200000000000000000000000200000000000,
200000000000200000000000000000000000200000000000,
200000000000000000000000400000000000000000000000,
200000000000000000000000400000000000000000000000,
#GOGOSTART
100000000000100000000000100000100000100000000000,
100000000000100000000000100000000000000000000000,
100000000000100000000000200000000000200000000000,
100000000000100000000000100000000000000000000000,
100000000000100000000000100000100000100000000000,
100000000000100000000000100000000000000000000000,
100000100000100000000000400000000000000000000000,
100000100000100000000000400000000000000000000000,
#GOGOEND
100000000000000000000000200000000000200000000000,
100000000000100000000000200000000000000000000000,
100000000000000000000000200000000000200000000000,
100000000000100000000000200000000000000000000000,
100000000000000000000000200000000000200000000000,
500000000000000000000000000000000000000000000080,
000000000000100000000000100000000000100000000000,
100000100000000000000000200000000000100000000000,
100000000000000000000000200000000000100000000000,
100000100000000000000000200000000000200000000000,
300000000000300000000000300000000000300000000000,
700000000000000000000000000000000000800000000000,
500000000000000000000000000000000008000000000000,
700000000000000000000000000000000000800000000000,
600000000000000000000000000000000008000000000000,
300000000000000000000000000000000000000000000000,
#END
COURSE:Easy
LEVEL:3
BALLOON:4,4,20,5,5
SCOREINIT:680
SCOREDIFF:248
#START
100000000000000000000000000000000000000000000000,
100000000000000000000000000000000000000000000000,
100000000000000000000000000000000000000000000000,
500000000000000000000000000080000000000000000000,
100000000000200000000000000000000000000000000000,
100000000000200000000000000000000000000000000000,
100000000000200000000000000000000000000000000000,
500000000000000000000000000080000000000000000000,
#GOGOSTART
100000000000000000000000100000000000000000000000,
100000000000100000000000100000000000000000000000,
200000000000000000000000200000000000000000000000,
200000000000200000000000200000000000000000000000,
100000000000000000000000100000000000000000000000,
100000000000100000000000100000000000100000000000,
100000000000000000000000300000000000000000000000,
100000000000000000000000300000000000000000000000,
100000000000000000000000100000000000000000000000,
100000000000100000000000100000000000000000000000,
200000000000000000000000200000000000000000000000,
200000000000200000000000200000000000000000000000,
100000000000000000000000100000000000000000000000,
100000000000100000000000100000000000100000000000,
100000000000000000000000300000000000000000000000,
100000000000000000000000300000000000000000000000,
#GOGOEND
700000000000000000000000000000000080000000000000,
500000000000000000000000000080000000000000000000,
700000000000000000000000000000000080000000000000,
500000000000000000000000000080000000000000000000,
9,
,
,
8,
100000000000000000000000200000000000000000000000,
100000000000000000000000000000000000000000000000,
100000000000000000000000100000000000100000000000,
100000000000000000000000100000000000000000000000,
100000000000000000000000100000000000100000000000,
500000000000000000000000000000000000000080000000,
000000000000100000000000100000000000100000000000,
100000000000000000000000000000000000100000000000,
100000000000000000000000000000000000100000000000,
100000000000000000000000100000000000100000000000,
300000000000300000000000300000000000000000000000,
100000000000200000000000000000000000000000000000,
100000000000200000000000000000000000000000000000,
100000000000200000000000000000000000000000000000,
100000000000200000000000000000000000000000000000,
200000000000200000000000000000000000000000000000,
200000000000200000000000000000000000000000000000,
200000000000000000000000400000000000000000000000,
200000000000000000000000400000000000000000000000,
#GOGOSTART
100000000000100000000000100000000000000000000000,
100000000000100000000000100000000000000000000000,
200000000000000000000000200000000000000000000000,
200000000000200000000000200000000000000000000000,
100000000000000000000000100000000000000000000000,
100000000000100000000000100000000000100000000000,
100000000000000000000000300000000000000000000000,
100000000000000000000000300000000000000000000000,
#GOGOEND
100000000000000000000000200000000000000000000000,
100000000000000000000000000000000000000000000000,
100000000000000000000000100000000000100000000000,
100000000000000000000000100000000000000000000000,
100000000000000000000000100000000000100000000000,
500000000000000000000000000000000000000080000000,
000000000000100000000000100000000000100000000000,
100000000000000000000000000000000000100000000000,
100000000000000000000000000000000000100000000000,
100000000000000000000000100000000000100000000000,
300000000000300000000000300000000000300000000000,
700000000000000000000000000000000080000000000000,
500000000000000000000000000080000000000000000000,
700000000000000000000000000000000080000000000000,
600000000000000000000000000080000000000000000000,
300000000000000000000000000000000000000000000000,
#END