Files
2026-09-09 16:46:55 -04:00

439 lines
5.1 KiB
Plaintext

//TJADB Project
TITLE:Hikari no destination
TITLEJA:ヒカリのdestination
SUBTITLE:--illumination STARS/THE iDOLM@STER Shiny Colors
SUBTITLEJA:「アイドルマスター シャイニーカラーズ」より
BPM:170
WAVE:Hikari no destination.ogg
OFFSET:-1.516
DEMOSTART:65.736
SCENEPRESET:IMAS
COURSE:Oni
LEVEL:7
BALLOON:35
SCOREINIT:490
SCOREDIFF:125
#START
1,
2,
1,
2,
1202,
1202,
1000202020222030,
03300000,
7,
0008,//10
#GOGOSTART
1000201110200030,
0020002000222020,
1000201110200030,
0020002000222020,
3022203000221020,
3022203000221020,
1011101110202050,
000000000000000008000000200000000000200000000000,//18
#GOGOEND
1000200010222020,
1000202010222020,
1000200010222020,
1000202010222020,
1000200010222020,
1000202010222020,
1000200010222020,
1000202022102222,
1010201110102012,
1010201110201120,
1010201110102012,
1010201110201120,
1010201110102011,
2010201110102010,
1022201022201050,
000000000000000000000000000000000008000000000000,
1212102210200030,
0020202022102010,
1212102210200030,
0020202022102010,
12012001,
1020001120102020,
30000222,
3020202010222020,
1022201022201022,
2010222011201120,
33033033,
0040400010221020,//46
#GOGOSTART
3000201110112010,
0011201020112000,
1000201110112010,
0011201020112000,
1000201110112030,
0010201110112000,
1000201110112030,
0020202010221020,
3000201110112010,
0011201020112000,
1022201000222010,
0022201010112210,
3010221000100030,
03030222,
3000201110112000,
3000201210112000,
3000201110112000,
3000201210112060,
000000000000000000000000000000000000000008000000,
0000200010102022,
1000200010102022,
1000202211202000,
3000201110112000,
3000201210112000,
3000201110112030,
0022102020202060,
000000000000000000000000000000000000000008000000,//73
#GOGOEND
,//74
#GOGOSTART
3000201110200030,
0020001000222020,
3000201110200030,
0020001000222020,
3022203000221020,
3022203000221020,
1022102210202050,
000000000000000000000000000000000000000008000000,//82
#GOGOEND
0033,
3,
#END
COURSE:Hard
LEVEL:4
BALLOON:25,25
#START
1,
2,
1,
2,
1202,
1202,
500000000000000000000000000000000008000000300000,
03300000,
7,
0008,//10
#GOGOSTART
10102203,
02020222,
10102203,
02020222,
30030222,
30030222,
10102225,
000000000000000008000000100000000000100000000000,//18
#GOGOEND
1212,
1202,
1212,
1202,
1212,
1202,
1212,
1,
10201120,
1212,
10201120,
1212,
10201120,
10201120,
7,
0008,
11100203,
,
11100203,
,
30012000,
30012000,
3,
3222,
5,
000008000000000000000000200000200000200000500000,
000000000000000000000000000000000000000008000000,
,//46
#GOGOSTART
30201121,
01201120,
10210201,
01210000,
10201123,
01201120,
10201123,
,
30201121,
01201120,
10210201,
01210000,
30210203,
03030000,
30201120,
30201120,
30201120,
30000006,
000000000000000000000000000000000000000008000000,
,
10201120,
10201120,
30201120,
30201120,
30201123,
00400006,
000000000000000000000000000000000000000008000000,//73
#GOGOEND
,//74
#GOGOSTART
10102203,
02020222,
10102203,
02020222,
30030222,
30030222,
10102225,
000000000000000000000000000000000000000008000000,//82
#GOGOEND
0033,
3,
,
,
,
#END
COURSE:Normal
LEVEL:4
BALLOON:14,14
#START
1,
,
1,
,
1,
1,
500000000000000000000000000000000000000008000000,
,
7,
0008,//10
#GOGOSTART
10102003,
,
10102003,
,
30030000,
30030000,
10102005,
000000000000000000000008000000000000000000000000,//18
#GOGOEND
11,
1,
11,
1,
11,
1,
11,
1,
12,
1120,
12,
1120,
12,
1120,
7,
0008,
11100003,
,
11100003,
,
32,
32,
3,
3222,
5,
000008000000000000000000000000000000000000500000,
000000000000000000000000000000000000000008000000,
,//46
#GOGOSTART
30000002,
0111,
10000002,
,
10101004,
,
10101004,
,
30000002,
0111,
10000002,
,
30000003,
03030000,
3002,
3002,
3002,
30000006,
000000000000000000000000000000000000000008000000,
,
,
,
3002,
3002,
30000003,
00000006,
000000000000000000000000000000000000000008000000,//73
#GOGOEND
,//74
#GOGOSTART
10102003,
,
10102003,
,
30030000,
30030000,
10102005,
000000000000000000000000000000000000000008000000,//82
#GOGOEND
0033,
3,
,
,
,
#END
COURSE:Easy
LEVEL:3
BALLOON:10,10,6,6
#START
1,
,
1,
,
1,
1,
500000000000000000000000000000000000000008000000,
,
7,
0008,//10
#GOGOSTART
10000003,
,
10000003,
,
30030000,
30030000,
10101005,
000000000000000000000008000000000000000000000000,//18
#GOGOEND
1,
1,
11,
1,
1,
1,
11,
1,
12,
02,
12,
02,
1,
1,
7,
0008,
10000003,
,
10000003,
,
3,
3,
3,
3,
5,
000008000000000000000000000000000000000000600000,
000000000000000000000000000000000000000008000000,
,//46
#GOGOSTART
3,
0111,
70000008,
,
10000004,
,
10000004,
,
3,
0111,
70000008,
,
30000003,
03030000,
3,
3,
3,
30000006,
000000000000000000000000000000000000000008000000,
,
,
,
3,
3,
30000003,
00000006,
000000000000000000000000000000000000000008000000,//73
#GOGOEND
,//74
#GOGOSTART
10000003,
,
10000003,
,
30030000,
30030000,
10101005,
000000000000000000000000000000000000000008000000,//82
#GOGOEND
0033,
3,
,
,
,
#END