Files
ESE/07 Game Music/Honwaka Kazoku Neko Tomo Theme Song/Honwaka Kazoku Neko Tomo Theme Song.tja

410 lines
2.9 KiB
Plaintext
Raw Permalink Blame History

This file contains ambiguous Unicode characters
This file contains Unicode characters that might be confused with other characters. If you think that this is intentional, you can safely ignore this warning. Use the Escape button to reveal them.
//TJADB Project
TITLE:Honwaka Kazoku ~Neko Tomo Theme Song~
TITLEJA:ほんわか家族~ネコトモのうた~
SUBTITLE:--Misaki Machiya/Neko Tomo
SUBTITLEJA:「ネコ・トモ」テーマ曲
BPM:139
WAVE:Honwaka Kazoku Neko Tomo Theme Song.ogg
OFFSET:-2.000
DEMOSTART:3.720
//SONG_ID:nekotm
COURSE:Oni
LEVEL:2
BALLOON:50
SCOREINIT:560,2450
SCOREDIFF:158
#START
0444,
#GOGOSTART
11221122,
12120210,
1212,
10210120,
11221122,
12120210,
10221020,
#GOGOEND
1444,
#GOGOSTART
11221122,
12120210,
1212,
10210120,
11221122,
12120210,
10221020,
#GOGOEND
1222, //17
11121112,
12120000,
22212221,
21210000,
12101210,
10210120,
2222,
10022000,
11121112,
12120000,
22212221,
21210000,
33303334,
4433,
4433,
30033000, //33
20221020,
10210120,
22221020,
3434,
20221122,
10210120,
33333220,
30330222,
22222222,
2444, //43
#GOGOSTART
11221122,
12120210,
1212,
10210120,
11221122,
12120210,
20221020,
#GOGOEND
1444,
#GOGOSTART
12121212,
12210120,
1212,
10210120,
12121212,
12210120,
33333004,
03333004, //59
01122112,
21122112,
7,
0,
0,
8000001110000000,
#GOGOEND
0, //66
#END
COURSE:Hard
LEVEL:2
BALLOON:30
SCOREINIT:600,3230
SCOREDIFF:178
#START
0444,
#GOGOSTART
11101110,
11110000,
1111,
10220000,
11101110,
11110000,
10111010,
#GOGOEND
1444,
#GOGOSTART
11101110,
11110000,
1111,
10220000,
11101110,
11110000,
10111010,
#GOGOEND
1, //17
11101110,
11220000,
22202220,
22110000,
10101110,
10110000,
2222,
20022000,
11101110,
11220000,
22202220,
22110000,
33303333,
3333,
4444,
600000000000000000000008000000000000000000000000, //33
20222020,
20220000,
22222020,
3333,
20222220,
20220000,
33333000,
33330000,
0,
0444, //43
#GOGOSTART
11101110,
11110000,
1111,
10220000,
11101110,
11110000,
20222020,
#GOGOEND
2444,
#GOGOSTART
11101110,
11220000,
1111,
10220000,
11101110,
11220000,
33333004,
03333005, //59
0,
000000000000000000000000000000000008000000000000,
9,
0,
0900,
8,
#GOGOEND
0, //66
#END
COURSE:Normal
LEVEL:2
BALLOON:5,25
SCOREINIT:1160,8270
SCOREDIFF:680
#START
0,
#GOGOSTART
11,
1,
1111,
1,
11,
1,
1111,
#GOGOEND
1,
#GOGOSTART
11,
1,
1111,
1,
11,
1,
1111,
#GOGOEND
1, //17
11,
1,
22,
2,
11,
1,
2222,
2,
11,
1,
22,
2,
33,
3333,
4444,
600000000000000000000008000000000000000000000000, //33
2,
2,
2,
3333,
2,
2,
3,
78,
0,
0, //43
#GOGOSTART
11,
1,
1111,
1,
11,
1,
2222,
#GOGOEND
2,
#GOGOSTART
11,
1,
1111,
1,
11,
1,
30000003,
00000005, //59
0,
000000000000000000000000000000000008000000000000,
9,
0,
0900,
8,
#GOGOEND
0, //66
#END
COURSE:Easy
LEVEL:2
BALLOON:4,22
SCOREINIT:1200,12200
SCOREDIFF:970
#START
0,
#GOGOSTART
11,
1,
11,
1,
11,
1,
22,
#GOGOEND
2,
#GOGOSTART
11,
1,
11,
1,
11,
1,
22,
#GOGOEND
2, //17
1,
1,
2,
2,
1,
1,
2,
2,
1,
1,
2,
2,
33,
3,
33,
600000000000000000000008000000000000000000000000, //33
2,
2,
2,
3,
2,
2,
3,
78,
0,
0, //43
#GOGOSTART
11,
1,
11,
1,
11,
1,
22,
#GOGOEND
2,
#GOGOSTART
11,
1,
11,
1,
11,
1,
30000003,
00000005, //59
0,
000000000000000000000000000000000008000000000000,
9,
0,
0900,
8,
#GOGOEND
0, //66
#END