837 lines
9.2 KiB
Plaintext
837 lines
9.2 KiB
Plaintext
//TJADB Project
|
|
TITLE:I Want -Amami Haruka Version-
|
|
TITLEJA:I Want
|
|
SUBTITLE:--Linda AI-CUE feat. Eriko Nakamura/THE iDOLM@STER SP
|
|
SUBTITLEJA:新譜面 別歌唱バージョン ‐ 春香
|
|
BPM:178
|
|
WAVE:I Want Amami Haruka Version.ogg
|
|
OFFSET:-1.467
|
|
DEMOSTART:98.608
|
|
SCENEPRESET:IMAS
|
|
|
|
|
|
COURSE:Oni
|
|
LEVEL:8
|
|
BALLOON:10,10,3,3,3,3,3,3,3,3
|
|
SCOREINIT:440,1360
|
|
SCOREDIFF:113
|
|
|
|
#START
|
|
#BARLINEOFF
|
|
000
|
|
#GOGOSTART
|
|
3,
|
|
|
|
#BARLINEON
|
|
1000200110102010,
|
|
0010201110102010,
|
|
1000200110102010,
|
|
0010201011102220,
|
|
33330333,
|
|
0030303011101110, //7
|
|
#GOGOEND
|
|
|
|
#SECTION
|
|
#BRANCHSTART p,75,90
|
|
#N
|
|
12010120,
|
|
12011220,
|
|
12010120,
|
|
12011221,
|
|
|
|
#GOGOSTART
|
|
1110200010100011,
|
|
1010200011100010,
|
|
1110200010100011,
|
|
1010200011100011, //n15
|
|
#GOGOEND
|
|
|
|
#E
|
|
12010120,
|
|
12011220,
|
|
12010120,
|
|
12011221,
|
|
#GOGOSTART
|
|
1110200010102011,
|
|
1010201011102010,
|
|
1110200010102011,
|
|
1010201011102011, //e15
|
|
#GOGOEND
|
|
|
|
#M
|
|
32010120,
|
|
1020001010202011,
|
|
12010120,
|
|
12011220,
|
|
#GOGOSTART
|
|
1000200110102010,
|
|
0010201110102010,
|
|
1000200110102010,
|
|
0010201011102220, //m15
|
|
#GOGOEND
|
|
|
|
#SECTION
|
|
#BRANCHSTART p,75,90
|
|
#N
|
|
10210120,
|
|
1020101010002011,
|
|
10210120,
|
|
12111221,
|
|
#GOGOSTART
|
|
1110100010200011,
|
|
1010200011100010,
|
|
1110201000200020,
|
|
0020202022202000, //n23
|
|
#GOGOEND
|
|
|
|
#E
|
|
10210120,
|
|
1020101010002011,
|
|
10210120,
|
|
12111221,
|
|
#GOGOSTART
|
|
1110200110102011,
|
|
1010201011102010,
|
|
1110201000102010,
|
|
0010201022202000, //e23
|
|
#GOGOEND
|
|
|
|
#M
|
|
32010120,
|
|
1020001010202011,
|
|
12010120,
|
|
12011220,
|
|
#GOGOSTART
|
|
1000200110102010,
|
|
0010201110102010,
|
|
1000200110102010,
|
|
0010201011102220, //m23
|
|
#GOGOEND
|
|
|
|
#SECTION
|
|
#BRANCHSTART p,75,90
|
|
#N
|
|
1110100010201000,
|
|
11211211,
|
|
1110100010201000,
|
|
11211211,
|
|
|
|
1110202011102010,
|
|
01211121,
|
|
5,
|
|
000000000000000000000000000000000008000000000000, //n31
|
|
|
|
#E
|
|
1022202220201020,
|
|
1010202010201110,
|
|
1022202220201020,
|
|
11211211,
|
|
|
|
1110202011102010,
|
|
0010201011102010,
|
|
5,
|
|
000000000000000000000000000000000008000000000000, //e31
|
|
|
|
#M
|
|
1022102210221022,
|
|
1010202010201110,
|
|
1022102210221022,
|
|
1010202010201110,
|
|
|
|
1022102210201010,
|
|
0010201011102010,
|
|
2011101020111010,
|
|
100100100000100100100000500000000000000008000000, //m31
|
|
|
|
#SECTION
|
|
#BRANCHSTART p,75,90
|
|
#N
|
|
#GOGOSTART
|
|
1000201110200011,
|
|
1010200011102000,
|
|
1404,
|
|
0444,
|
|
|
|
1000201110200011,
|
|
1010200011102000,
|
|
1404,
|
|
#GOGOEND
|
|
0444, //n39
|
|
|
|
#E
|
|
#GOGOSTART
|
|
1000201110102011,
|
|
1010201011102010,
|
|
1404,
|
|
0444,
|
|
|
|
1000201110102011,
|
|
1010201011102010,
|
|
1404,
|
|
#GOGOEND
|
|
0444, //e39
|
|
|
|
#M
|
|
#GOGOSTART
|
|
1000200110102010,
|
|
0010201110102010,
|
|
1000400110104010,
|
|
01414140,
|
|
|
|
1000200110102010,
|
|
0010201110102010,
|
|
1000400110104010,
|
|
#GOGOEND
|
|
01414140, //m39
|
|
|
|
#SECTION
|
|
#BRANCHSTART p,75,90
|
|
#N
|
|
12010120,
|
|
12011220,
|
|
12010120,
|
|
12011221,
|
|
|
|
#GOGOSTART
|
|
1110200010100011,
|
|
1010201011102010,
|
|
1110200010100011,
|
|
1010201011102011, //n47
|
|
#GOGOEND
|
|
|
|
#E
|
|
12010120,
|
|
12011220,
|
|
12010120,
|
|
12011221,
|
|
|
|
#GOGOSTART
|
|
1110200010102011,
|
|
1010201011102010,
|
|
1110200010102011,
|
|
1010201011102011, //e47
|
|
#GOGOEND
|
|
|
|
#M
|
|
32010120,
|
|
1020001010202011,
|
|
12010120,
|
|
12011220,
|
|
|
|
#GOGOSTART
|
|
1000200110102010,
|
|
0010201110102010,
|
|
1000200110102010,
|
|
0010201011102220, //m47
|
|
#GOGOEND
|
|
|
|
#SECTION
|
|
#BRANCHSTART p,75,90
|
|
#N
|
|
10210120,
|
|
1020101010002011,
|
|
10210120,
|
|
12111221,
|
|
|
|
#GOGOSTART
|
|
1110100010201011,
|
|
1010201011100010,
|
|
1110201000200020,
|
|
0020202022202000, //n55
|
|
#GOGOEND
|
|
|
|
#E
|
|
10210120,
|
|
1020101010002011,
|
|
10210120,
|
|
12111221,
|
|
|
|
#GOGOSTART
|
|
1110200010102011,
|
|
1010201011102010,
|
|
1110202000102010,
|
|
0010201011102220, //e55
|
|
#GOGOEND
|
|
|
|
#M
|
|
1010201011101020,
|
|
1010201110102011,
|
|
1010201110102010,
|
|
1010202210112010,
|
|
|
|
#GOGOSTART
|
|
1000200110102010,
|
|
0010201110102010,
|
|
1000200110102010,
|
|
0010201011102220, //m55
|
|
#GOGOEND
|
|
|
|
#SECTION
|
|
#BRANCHSTART p,75,90
|
|
#N
|
|
1110100010201000,
|
|
11201211,
|
|
1110100010201000,
|
|
11201211,
|
|
|
|
1110100010201000,
|
|
21211121,
|
|
5,
|
|
000000000000000000000000000000000008000000000000, //n63
|
|
|
|
#E
|
|
1022202020201000,
|
|
1010202010201110,
|
|
1022202020201000,
|
|
11211211,
|
|
|
|
1110202011102010,
|
|
0010201011102010,
|
|
1000201110500000,
|
|
000000000000000000000000000000000008000000000000, //e63
|
|
|
|
#M
|
|
1022102210221022,
|
|
1010202010201110,
|
|
1022102210221022,
|
|
1010202010201110,
|
|
|
|
1022102210221010,
|
|
0010201011102010,
|
|
1000201110201010,
|
|
500000000000000000000000000000000008000000000000, //m63
|
|
|
|
#SECTION
|
|
#BRANCHSTART p,75,90
|
|
#N
|
|
30303034,
|
|
30303034,
|
|
30303034,
|
|
3333,
|
|
|
|
30303034,
|
|
3333,
|
|
500000000000000000000008000000000000000007000000,
|
|
0000000000080000, //n71
|
|
|
|
#GOGOSTART
|
|
30030010, //n72
|
|
|
|
#E
|
|
30303034,
|
|
30303034,
|
|
30303034,
|
|
3333,
|
|
|
|
30303034,
|
|
3333,
|
|
30303037,
|
|
0000000000080000, //e71
|
|
|
|
#GOGOSTART
|
|
30030010, //e72
|
|
|
|
#M
|
|
30303034,
|
|
3333,
|
|
30303034,
|
|
3333,
|
|
|
|
30303034,
|
|
3333,
|
|
30303033,
|
|
01111111, //m71
|
|
|
|
#GOGOSTART
|
|
3011103011101110, //m72
|
|
|
|
#SECTION
|
|
#BRANCHSTART p,75,90
|
|
#N
|
|
1022201022201020,
|
|
3000003000001011,
|
|
1022201022201000,
|
|
|
|
7878,
|
|
7878,
|
|
3030222030302030,
|
|
0030203030002220, //n79
|
|
#GOGOEND
|
|
|
|
#E
|
|
1022201022201020,
|
|
3022203022201011,
|
|
1022201022201000,
|
|
|
|
7878,
|
|
7878,
|
|
3030222030302030,
|
|
0030203030002220, //e79
|
|
#GOGOEND
|
|
|
|
#M
|
|
1022202011222020,
|
|
1022201022111020,
|
|
1022202022111010,
|
|
|
|
1110202011102020,
|
|
1111202011112020,
|
|
33003303,
|
|
03033030, //m79
|
|
#GOGOEND
|
|
|
|
#SECTION
|
|
#BRANCHSTART p,75,90
|
|
#N
|
|
1010201000102220,
|
|
0010222011102220,
|
|
1010201000102220,
|
|
0010222011102220,
|
|
|
|
1010201000102210,
|
|
0010221010102220,
|
|
1010222000102210,
|
|
0010221010102020, //n87
|
|
|
|
#E
|
|
11210121,
|
|
0010222011102220,
|
|
1010202000112010,
|
|
0011201011102220,
|
|
|
|
1110202000112010,
|
|
0011201010102220,
|
|
1010222000112010,
|
|
0011201010102020, //e87
|
|
|
|
#M
|
|
11220121,
|
|
01211122,
|
|
1110202000112010,
|
|
0011201011202210,
|
|
|
|
1110202000112010,
|
|
0011201011102020,
|
|
1110202000112020,
|
|
0011201011221020, //m87
|
|
|
|
#BRANCHEND
|
|
|
|
0,
|
|
0, //89
|
|
#END
|
|
|
|
|
|
COURSE:Hard
|
|
LEVEL:6
|
|
BALLOON:20,13,13
|
|
SCOREINIT:420,1700
|
|
SCOREDIFF:108
|
|
|
|
#START
|
|
#BARLINEOFF
|
|
000
|
|
#GOGOSTART
|
|
3,
|
|
|
|
#BARLINEON
|
|
1000100010111010,
|
|
01101110,
|
|
1000100010111010,
|
|
01101110,
|
|
33330333,
|
|
03333030, //7
|
|
#GOGOEND
|
|
|
|
10110110,
|
|
10111010,
|
|
10110110,
|
|
10111010,
|
|
|
|
#GOGOSTART
|
|
3000100010111010,
|
|
01101110,
|
|
3000100010111010,
|
|
01101110, //15
|
|
#GOGOEND
|
|
|
|
10110110,
|
|
10111010,
|
|
10110110,
|
|
10111010,
|
|
|
|
#GOGOSTART
|
|
3000100010111010,
|
|
01101110,
|
|
33330333,
|
|
0030301110111011, //23
|
|
#GOGOEND
|
|
|
|
10101101,
|
|
10101100,
|
|
01101101,
|
|
10101100,
|
|
|
|
10101101,
|
|
10101110,
|
|
10017000,
|
|
000000000000000000000000000000000000000008000000, //31
|
|
|
|
#GOGOSTART
|
|
0000100010111010,
|
|
0011101011101000,
|
|
0303,
|
|
0333,
|
|
|
|
1000100010111010,
|
|
0011101011101000,
|
|
0303,
|
|
0333, //39
|
|
#GOGOEND
|
|
|
|
10110110,
|
|
10111010,
|
|
10110110,
|
|
10111010,
|
|
|
|
#GOGOSTART
|
|
3000100010111010,
|
|
0011101011101000,
|
|
3000100010111010,
|
|
0011101110111011, //47
|
|
#GOGOEND
|
|
|
|
10110110,
|
|
10111011,
|
|
10110110,
|
|
10111011,
|
|
|
|
#GOGOSTART
|
|
3000100010111010,
|
|
0011101011101000,
|
|
33330333,
|
|
0030303030111011, //55
|
|
|
|
#GOGOEND
|
|
10101101,
|
|
01101100,
|
|
01101101,
|
|
10101100,
|
|
|
|
10101101,
|
|
01111010,
|
|
10017000,
|
|
0081, //63
|
|
|
|
30303033,
|
|
3333,
|
|
30303033,
|
|
3333,
|
|
|
|
30303033,
|
|
30303033,
|
|
3337,
|
|
0008, //71
|
|
|
|
#GOGOSTART
|
|
30030000,
|
|
0011101011101000,
|
|
30030000,
|
|
0011101011101000,
|
|
|
|
3011100030111000,
|
|
3011100030111000,
|
|
33003303,
|
|
03033030, //79
|
|
#GOGOEND
|
|
|
|
1010101000111010,
|
|
0011101011101000,
|
|
1010101000111010,
|
|
0011101011101000,
|
|
|
|
1010101000111010,
|
|
0011101011101000,
|
|
1010101000111010,
|
|
0011101010102020, //87
|
|
|
|
0,
|
|
0, //89
|
|
#END
|
|
|
|
|
|
COURSE:Normal
|
|
LEVEL:5
|
|
BALLOON:8,20,10,10
|
|
SCOREINIT:590,3090
|
|
SCOREDIFF:170
|
|
|
|
#START
|
|
#BARLINEOFF
|
|
000
|
|
#GOGOSTART
|
|
3,
|
|
|
|
#BARLINEON
|
|
0101,
|
|
0101,
|
|
0101,
|
|
0101,
|
|
7,
|
|
8, //7
|
|
#GOGOEND
|
|
|
|
10110000,
|
|
10111000,
|
|
10110000,
|
|
10111010,
|
|
|
|
#GOGOSTART
|
|
3101,
|
|
0101,
|
|
0101,
|
|
0101, //15
|
|
#GOGOEND
|
|
|
|
10110000,
|
|
10111000,
|
|
10110000,
|
|
10111010,
|
|
|
|
#GOGOSTART
|
|
3101,
|
|
0101,
|
|
0101,
|
|
0101, //23
|
|
#GOGOEND
|
|
|
|
11,
|
|
1110,
|
|
11,
|
|
1110,
|
|
|
|
10101011,
|
|
10101011,
|
|
17,
|
|
000000000000000000000000000000000000000008000000, //31
|
|
|
|
#GOGOSTART
|
|
0101,
|
|
0101,
|
|
0303,
|
|
0333,
|
|
|
|
0101,
|
|
0101,
|
|
0303,
|
|
0333, //39
|
|
#GOGOEND
|
|
|
|
10110000,
|
|
10111000,
|
|
10110000,
|
|
10111010,
|
|
|
|
#GOGOSTART
|
|
3101,
|
|
0101,
|
|
0101,
|
|
0101, //47
|
|
#GOGOEND
|
|
|
|
10110000,
|
|
10111000,
|
|
10110000,
|
|
10111010,
|
|
|
|
#GOGOSTART
|
|
3101,
|
|
0101,
|
|
0101,
|
|
0101, //55
|
|
#GOGOEND
|
|
|
|
11,
|
|
1110,
|
|
11,
|
|
1110,
|
|
|
|
10101011,
|
|
10101011,
|
|
17,
|
|
0081, //63
|
|
|
|
30303033,
|
|
3333,
|
|
30303033,
|
|
3333,
|
|
|
|
30303033,
|
|
30303033,
|
|
3337,
|
|
0008, //71
|
|
|
|
#GOGOSTART
|
|
30030000,
|
|
11101010,
|
|
30030000,
|
|
11101010,
|
|
|
|
3030,
|
|
3030,
|
|
33003303,
|
|
03033030, //79
|
|
#GOGOEND
|
|
|
|
1101,
|
|
0111,
|
|
1101,
|
|
0111,
|
|
|
|
1101,
|
|
0111,
|
|
1101,
|
|
00101122, //87
|
|
|
|
0,
|
|
0, //89
|
|
#END
|
|
|
|
|
|
COURSE:Easy
|
|
LEVEL:3
|
|
BALLOON:8,13,8,8,5
|
|
SCOREINIT:480,4410
|
|
SCOREDIFF:143
|
|
|
|
#START
|
|
#BARLINEOFF
|
|
000
|
|
#GOGOSTART
|
|
3,
|
|
|
|
#BARLINEON
|
|
0101,
|
|
0111,
|
|
0101,
|
|
0111,
|
|
7,
|
|
8, //7
|
|
#GOGOEND
|
|
|
|
1,
|
|
11,
|
|
1,
|
|
11,
|
|
|
|
#GOGOSTART
|
|
0101,
|
|
0101,
|
|
0101,
|
|
0101, //15
|
|
#GOGOEND
|
|
|
|
1,
|
|
11,
|
|
1,
|
|
11,
|
|
#GOGOSTART
|
|
0101,
|
|
0101,
|
|
0101,
|
|
0101, //23
|
|
#GOGOEND
|
|
|
|
11,
|
|
1110,
|
|
11,
|
|
1110,
|
|
|
|
11,
|
|
1111,
|
|
17,
|
|
000000000000000000000000000000000000000008000000, //31
|
|
|
|
#GOGOSTART
|
|
0101,
|
|
0101,
|
|
0303,
|
|
0333,
|
|
|
|
0101,
|
|
0101,
|
|
0303,
|
|
0333, //39
|
|
#GOGOEND
|
|
|
|
1,
|
|
11,
|
|
1,
|
|
11,
|
|
|
|
#GOGOSTART
|
|
0101,
|
|
0101,
|
|
0101,
|
|
0101, //47
|
|
#GOGOEND
|
|
|
|
1,
|
|
11,
|
|
1,
|
|
11,
|
|
|
|
#GOGOSTART
|
|
0101,
|
|
0101,
|
|
0101,
|
|
0101, //55
|
|
#GOGOEND
|
|
|
|
11,
|
|
1110,
|
|
11,
|
|
1110,
|
|
|
|
11,
|
|
1111,
|
|
17,
|
|
08, //63
|
|
|
|
3003,
|
|
3333,
|
|
3003,
|
|
3333,
|
|
|
|
3003,
|
|
3333,
|
|
3337,
|
|
0008, //71
|
|
|
|
#GOGOSTART
|
|
30030000,
|
|
0,
|
|
30030000,
|
|
0,
|
|
|
|
33,
|
|
33,
|
|
33003307,
|
|
0000000000000800, //79
|
|
#GOGOEND
|
|
|
|
1101,
|
|
0110,
|
|
1101,
|
|
0110,
|
|
|
|
1101,
|
|
0110,
|
|
1101,
|
|
00101122, //87
|
|
|
|
0,
|
|
0, //89
|
|
#END
|
|
|