Add Traditional Chinese title (1276 charts) and subtitle (900 charts) header fields. Header additions only; no chart data changed. Co-Authored-By: Claude Opus 5 <noreply@anthropic.com>
728 lines
9.5 KiB
Plaintext
Executable File
728 lines
9.5 KiB
Plaintext
Executable File
//TJADB Project
|
|
TITLE:I am not Alice.
|
|
TITLEJA:I am not Alice.
|
|
TITLEZH_TW:I am not Alice.
|
|
SUBTITLE:--Morimori Atsushi / Synchronica
|
|
SUBTITLEJA:モリモリあつし 「シンクロニカ」より
|
|
SUBTITLEZH_TW:--Morimori Atsushi 來自「Synchronica」
|
|
BPM:130
|
|
WAVE:I am not Alice.ogg
|
|
OFFSET:-1.505
|
|
DEMOSTART:105.356
|
|
|
|
//Deviation: Don note at the start of Bar 48 shifted forward
|
|
//by 1 384th note to recreate different HS for note and barline.
|
|
|
|
COURSE:Oni
|
|
LEVEL:10
|
|
BALLOON:
|
|
SCOREINIT:1140
|
|
SCOREDIFF:0
|
|
|
|
#START
|
|
#BARLINEOFF
|
|
#MEASURE 1/4
|
|
0222,
|
|
|
|
#BARLINEON
|
|
#MEASURE 4/4
|
|
1020222100202221,
|
|
0020202100202021,
|
|
0020202100202021,
|
|
0000201202020220,
|
|
|
|
1020222100202221,
|
|
0020202100202020,
|
|
100100200200000100100200200000200000202020100000,
|
|
400000000000000000000000600000000000000008000000,
|
|
|
|
1020112210202112,
|
|
1020112210202112,
|
|
1020112210202112,
|
|
1020112102102120,
|
|
|
|
1010112210101122,
|
|
1010112210212120,
|
|
221221221221221221221221,
|
|
20000020000022202000100020202000, //17
|
|
|
|
3000122210101000,
|
|
10111000100020001020202010101000,
|
|
30000000122222221020202010002000,
|
|
10222222100020001020202010200000,
|
|
|
|
3000122210101000,
|
|
10111000100020001020202010101000,
|
|
30000000122222221020202010002000,
|
|
1210220102101020,
|
|
|
|
3000222210201220,
|
|
10111010201022221020202010101000,
|
|
30000000122222221020202010101000,
|
|
10222222101020111020101020200000,
|
|
|
|
3000122211101020,
|
|
10111010201020001020202010101000,
|
|
30000000122222221020202010002000,
|
|
1010212101212020, //33
|
|
|
|
14,
|
|
24,
|
|
24,
|
|
20006008,
|
|
|
|
2020222200202221,
|
|
0020102100201020,
|
|
100200200200000200200100200000200000202020200000,
|
|
12223000,
|
|
|
|
1010112210101122,
|
|
1010112210201020,
|
|
221221221221221221221221,
|
|
20000020000022202000100020202000,
|
|
|
|
5,
|
|
000000000000000000000000000000000000000000000000000000000000000000000000000000000000000000000000000000000000000000000000000000000000000000000000000000000000000000000000000000000000000000000000000000000000000000000000000000000000000000000000800000000000000000000000000000000000000000000000400000000000000000000000000000000000000000000000000000000000000000000000000000000000000000000001, //47
|
|
|
|
#BPMCHANGE 260
|
|
00210120,
|
|
1022201000102000,
|
|
11211021,
|
|
1110101020102000,
|
|
|
|
1110101022201020,
|
|
1110101022201020,
|
|
1110202011102020,
|
|
0011101040000000,
|
|
|
|
3333,
|
|
3333,
|
|
12121212,
|
|
311444, //59
|
|
|
|
#GOGOSTART
|
|
3000201011202010,
|
|
0010201011202010,
|
|
0011201020102010,
|
|
0011201020102010,
|
|
|
|
0011201022102010,
|
|
0011201022102010,
|
|
000200101020101020101020,
|
|
202010202010202010200
|
|
#GOGOEND
|
|
000,
|
|
|
|
#GOGOSTART
|
|
30003000
|
|
#GOGOEND
|
|
222220
|
|
#GOGOSTART
|
|
30,
|
|
00003000
|
|
#GOGOEND
|
|
111120
|
|
#GOGOSTART
|
|
30,
|
|
0000300030111010,
|
|
0000111110003000, //71
|
|
#GOGOEND
|
|
|
|
221221221114,
|
|
112112112112,
|
|
#GOGOSTART
|
|
3011201120112011,
|
|
2010201022112211,
|
|
#GOGOEND
|
|
|
|
500000000000000008000000
|
|
#GOGOSTART
|
|
200000000000100010001000,
|
|
100111100100100200100100,
|
|
0010201120101120,
|
|
100000100100200010001000100000200000100000100000,
|
|
|
|
0011201021102010,
|
|
0011222010102050,
|
|
000008000000100010002000100010002000100010002000,
|
|
100010002000100010002000100200100200100200
|
|
#GOGOEND
|
|
100000, //83
|
|
|
|
#GOGOSTART
|
|
30003000
|
|
#GOGOEND
|
|
222220
|
|
#GOGOSTART
|
|
30,
|
|
00003000
|
|
#GOGOEND
|
|
111120
|
|
#GOGOSTART
|
|
30,
|
|
000000300000301010100100,
|
|
0000111110003000,
|
|
|
|
1110201000101010,
|
|
200100200000102010100000,
|
|
#GOGOEND
|
|
2220202000202010,
|
|
200200200000202020200000,
|
|
|
|
#GOGOSTART
|
|
221221221112,
|
|
112112112112, //93
|
|
|
|
4,
|
|
0,
|
|
6,
|
|
000000000000000000000000000000000000000008000000,
|
|
|
|
3,
|
|
0000000000002022,
|
|
5,
|
|
000000000000000000000000000000000000000008000000,
|
|
#GOGOEND
|
|
|
|
4,
|
|
0,
|
|
0,
|
|
0,
|
|
0, //106
|
|
#END
|
|
|
|
|
|
COURSE:Hard
|
|
LEVEL:7
|
|
BALLOON:
|
|
SCOREINIT:2330
|
|
SCOREDIFF:0
|
|
|
|
#START
|
|
#BARLINEOFF
|
|
#MEASURE 1/4
|
|
0,
|
|
|
|
#BARLINEON
|
|
#MEASURE 4/4
|
|
1020200100202001,
|
|
0020200100202001,
|
|
0020200100202001,
|
|
0000201102020020,
|
|
|
|
1020200100202001,
|
|
0020200100202020,
|
|
1011022020202220,
|
|
400000000000000000000000600000000000000008000000,
|
|
|
|
1000101110001022,
|
|
1000101110001022,
|
|
1000101110001022,
|
|
1010101100202020,
|
|
|
|
1010101110101011,
|
|
1010101110201020,
|
|
500000000000000000000000000000000000000008000000,
|
|
2002002020002000, //17
|
|
|
|
3000111110101000,
|
|
1000101011102000,
|
|
3000100011111010,
|
|
1000101022222000,
|
|
|
|
3000111110101000,
|
|
1000101011102000,
|
|
3000100011111010,
|
|
1010101100202020,
|
|
|
|
30001212,
|
|
0000100011102000,
|
|
30001212,
|
|
0000100020222000,
|
|
|
|
3000111110101000,
|
|
1000101011102000,
|
|
3000100011111010,
|
|
1010101100202020, //33
|
|
|
|
14,
|
|
24,
|
|
24,
|
|
20006008,
|
|
|
|
2000000020000001,
|
|
0000100100001000,
|
|
12,
|
|
13,
|
|
|
|
1010101110101011,
|
|
1010101110202020,
|
|
500000000000000000000000000000000000000000000008,
|
|
0000002020202220,
|
|
|
|
5,
|
|
000000000000000000000000000000000000000000000000000000000000000000000000000000000000000000000000000000000000000000000000000000000000000000000000000000000000000000000000000000000000000000000000000000000000000000000000000000000000000000000000800000000000000000000000000000000000000000000000400000000000000000000000000000000000000000000000000000000000000000000000000000000000000000000001, //47
|
|
|
|
#BPMCHANGE 260
|
|
00010020,
|
|
10010020,
|
|
10010020,
|
|
10111020,
|
|
|
|
10222011,
|
|
10222011,
|
|
10222022,
|
|
04,
|
|
|
|
3333,
|
|
3333,
|
|
3333,
|
|
4, //59
|
|
|
|
#GOGOSTART
|
|
30101111,
|
|
02201111,
|
|
00101011,
|
|
00202011,
|
|
|
|
00202011,
|
|
00202015,
|
|
0,
|
|
000000000000000000000000000000000008000000
|
|
#GOGOEND
|
|
000000,
|
|
|
|
#GOGOSTART
|
|
3030
|
|
#GOGOEND
|
|
200
|
|
#GOGOSTART
|
|
3,
|
|
0030
|
|
#GOGOEND
|
|
200
|
|
#GOGOSTART
|
|
3,
|
|
00303011,
|
|
0113, //71
|
|
#GOGOEND
|
|
|
|
5,
|
|
0008,
|
|
#GOGOSTART
|
|
1111,
|
|
30301111,
|
|
#GOGOEND
|
|
|
|
0000
|
|
#GOGOSTART
|
|
2011,
|
|
01101111,
|
|
01101101,
|
|
10101111,
|
|
|
|
01101111,
|
|
01101115,
|
|
0,
|
|
000000000000000000000000000000000008000000
|
|
#GOGOEND
|
|
000000, //83
|
|
|
|
#GOGOSTART
|
|
3030
|
|
#GOGOEND
|
|
200
|
|
#GOGOSTART
|
|
3,
|
|
0030
|
|
#GOGOEND
|
|
200
|
|
#GOGOSTART
|
|
3,
|
|
00303011,
|
|
0113,
|
|
|
|
10110110,
|
|
2222,
|
|
#GOGOEND
|
|
20000002,
|
|
0,
|
|
|
|
#GOGOSTART
|
|
1111,
|
|
500000000000000000000000000000000000000008000000, //93
|
|
|
|
3,
|
|
0,
|
|
6,
|
|
000000000000000000000000000000000000000008000000,
|
|
|
|
3,
|
|
0002,
|
|
5,
|
|
000000000000000000000000000000000000000008000000,
|
|
#GOGOEND
|
|
|
|
4,
|
|
0,
|
|
0,
|
|
0,
|
|
0, //106
|
|
#END
|
|
|
|
|
|
COURSE:Normal
|
|
LEVEL:7
|
|
BALLOON:24
|
|
SCOREINIT:3610
|
|
SCOREDIFF:0
|
|
|
|
#START
|
|
#BARLINEOFF
|
|
#MEASURE 1/4
|
|
0,
|
|
|
|
#BARLINEON
|
|
#MEASURE 4/4
|
|
1000200100002001,
|
|
0000200100002001,
|
|
0000200100002001,
|
|
0000200102020020,
|
|
|
|
1000200100002001,
|
|
0000200100002000,
|
|
1001000020202000,
|
|
400000000000000000000000600000000000000008000000,
|
|
|
|
10101012,
|
|
10101012,
|
|
10101012,
|
|
500000000000000000000000000000000008000000000000,
|
|
|
|
10111011,
|
|
10112220,
|
|
500000000000000000000000000000000000000008000000,
|
|
2002002020002000, //17
|
|
|
|
30101110,
|
|
10101120,
|
|
30101110,
|
|
10102220,
|
|
|
|
30101110,
|
|
10101120,
|
|
30101110,
|
|
500000000000000000000000000000000008000000000000,
|
|
|
|
30001210,
|
|
00101120,
|
|
30001210,
|
|
00102220,
|
|
|
|
30101110,
|
|
10101120,
|
|
30101110,
|
|
500000000000000000000000000000000008000000000000, //33
|
|
|
|
14,
|
|
24,
|
|
24,
|
|
20006008,
|
|
|
|
24,
|
|
24,
|
|
12,
|
|
13,
|
|
|
|
10111011,
|
|
10112220,
|
|
500000000000000000000000000000000000000000000008,
|
|
0002,
|
|
|
|
7,
|
|
000000000000000000000000000000000000000000000000000000000000000000000000000000000000000000000000000000000000000000000000000000000000000000000000000000000000000000000000000000000000000000000000000000000000000000000000000000000000000000000000800000000000000000000000000000000000000000000000400000000000000000000000000000000000000000000000000000000000000000000000000000000000000000000001, //47
|
|
|
|
#BPMCHANGE 260
|
|
00010000,
|
|
1,
|
|
10010000,
|
|
1110,
|
|
|
|
1110,
|
|
1110,
|
|
1111,
|
|
04,
|
|
|
|
3333,
|
|
3333,
|
|
3333,
|
|
4, //59
|
|
|
|
#GOGOSTART
|
|
30101001,
|
|
00101001,
|
|
00101001,
|
|
00101001,
|
|
|
|
00202001,
|
|
00202005,
|
|
0,
|
|
000000000000000000000000000000000008000000
|
|
#GOGOEND
|
|
000000,
|
|
|
|
#GOGOSTART
|
|
3030
|
|
#GOGOEND
|
|
000
|
|
#GOGOSTART
|
|
3,
|
|
0030
|
|
#GOGOEND
|
|
000
|
|
#GOGOSTART
|
|
3,
|
|
00303003,
|
|
0113, //71
|
|
#GOGOEND
|
|
|
|
5,
|
|
000000000000000000000000000000000000000008000000,
|
|
#GOGOSTART
|
|
3333,
|
|
3333,
|
|
#GOGOEND
|
|
|
|
4000
|
|
#GOGOSTART
|
|
0022,
|
|
10101001,
|
|
01101101,
|
|
10202001,
|
|
|
|
00202001,
|
|
00202005,
|
|
0,
|
|
000000000000000000000000000000000008000000
|
|
#GOGOEND
|
|
000000, //83
|
|
|
|
#GOGOSTART
|
|
3030
|
|
#GOGOEND
|
|
000
|
|
#GOGOSTART
|
|
3,
|
|
0030
|
|
#GOGOEND
|
|
000
|
|
#GOGOSTART
|
|
3,
|
|
00303003,
|
|
0113,
|
|
|
|
10110101,
|
|
11,
|
|
#GOGOEND
|
|
2,
|
|
2,
|
|
|
|
#GOGOSTART
|
|
5,
|
|
000000000000000000000000000000000000000008000000, //93
|
|
|
|
3,
|
|
0,
|
|
6,
|
|
000000000000000000000000000000000000000008000000,
|
|
|
|
3,
|
|
0002,
|
|
5,
|
|
000000000000000000000000000000000000000000000008,
|
|
#GOGOEND
|
|
|
|
0,
|
|
0,
|
|
0,
|
|
0,
|
|
0, //106
|
|
#END
|
|
|
|
|
|
COURSE:Easy
|
|
LEVEL:5
|
|
BALLOON:18
|
|
SCOREINIT:5090
|
|
SCOREDIFF:0
|
|
|
|
#START
|
|
#BARLINEOFF
|
|
#MEASURE 1/4
|
|
0,
|
|
|
|
#BARLINEON
|
|
#MEASURE 4/4
|
|
1000000100000001,
|
|
0000000100000001,
|
|
0000000100000001,
|
|
0000000200000000,
|
|
|
|
1000000100000001,
|
|
0000000100000000,
|
|
1000000200000000,
|
|
600000000000000000000000000000000008000000000000,
|
|
|
|
1110,
|
|
1110,
|
|
1110,
|
|
500000000000000000000000000000000008000000000000,
|
|
|
|
1111,
|
|
10101110,
|
|
500000000000000000000000000000000000000008000000,
|
|
2022, //17
|
|
|
|
3110,
|
|
1112,
|
|
3110,
|
|
1120,
|
|
|
|
3110,
|
|
1112,
|
|
3110,
|
|
1000000100002000,
|
|
|
|
3011,
|
|
0112,
|
|
3011,
|
|
0122,
|
|
3110,
|
|
1112,
|
|
3110,
|
|
1000000100002000, //33
|
|
|
|
14,
|
|
24,
|
|
24,
|
|
20006008,
|
|
|
|
24,
|
|
24,
|
|
24,
|
|
13,
|
|
|
|
1111,
|
|
10101110,
|
|
500000000000000000000000000000000000000000000008,
|
|
0,
|
|
|
|
7,
|
|
000000000000000000000000000000000000000000000000000000000000000000000000000000000000000000000000000000000000000000000000000000000000000000000000000000000000000000000000000000000000000000000000000000000000000000000000000000000000000000000000800000000000000000000000000000000000000000000000400000000000000000000000000000000000000000000000000000000000000000000000000000000000000000000001, //47
|
|
|
|
#BPMCHANGE 260
|
|
0,
|
|
1,
|
|
1,
|
|
11,
|
|
|
|
1110,
|
|
1110,
|
|
1111,
|
|
04,
|
|
|
|
33,
|
|
33,
|
|
3333,
|
|
4, //59
|
|
|
|
#GOGOSTART
|
|
30101001,
|
|
00101001,
|
|
00101001,
|
|
00002001,
|
|
|
|
00002001,
|
|
00002005,
|
|
0,
|
|
000000000000000000000000000000000008000000
|
|
#GOGOEND
|
|
000000,
|
|
|
|
#GOGOSTART
|
|
3000
|
|
#GOGOEND
|
|
000
|
|
#GOGOSTART
|
|
3,
|
|
0030
|
|
#GOGOEND
|
|
000
|
|
#GOGOSTART
|
|
3,
|
|
00003003,
|
|
03, //71
|
|
#GOGOEND
|
|
|
|
5,
|
|
000000000000000000000000000000000008000000000000,
|
|
#GOGOSTART
|
|
33,
|
|
3333,
|
|
#GOGOEND
|
|
|
|
4
|
|
#GOGOSTART
|
|
0,
|
|
10101001,
|
|
0110,
|
|
10101001,
|
|
|
|
00002001,
|
|
00002005,
|
|
0,
|
|
000000000000000000000000000000000008000000
|
|
#GOGOEND
|
|
000000, //83
|
|
|
|
#GOGOSTART
|
|
3000
|
|
#GOGOEND
|
|
000
|
|
#GOGOSTART
|
|
3,
|
|
0030
|
|
#GOGOEND
|
|
000
|
|
#GOGOSTART
|
|
3,
|
|
00303003,
|
|
03,
|
|
|
|
10010000,
|
|
11,
|
|
#GOGOEND
|
|
2,
|
|
2,
|
|
|
|
#GOGOSTART
|
|
5,
|
|
000000000000000000000000000000000008000000000000, //93
|
|
|
|
3,
|
|
0,
|
|
6,
|
|
000000000000000000000000000000000008000000000000,
|
|
|
|
3,
|
|
0,
|
|
5,
|
|
000000000000000000000000000000000000000000000008,
|
|
#GOGOEND
|
|
|
|
0,
|
|
0,
|
|
0,
|
|
0,
|
|
0, //106
|
|
#END |