Files
ESE/07 Game Music/Its Better to Create One Cute Girl Than to Create the World in 7 Days/Its Better to Create One Cute Girl Than to Create the World in 7 Days.tja

240 lines
1.7 KiB
Plaintext
Raw Permalink Blame History

This file contains ambiguous Unicode characters
This file contains Unicode characters that might be confused with other characters. If you think that this is intentional, you can safely ignore this warning. Use the Escape button to reveal them.
//TJADB Project
TITLE:It’s Better to Create One Cute Girl Than to Create the World in 7 Days
TITLEJA:7日間かけて世界を創るより可愛い女の子1人創った方がいい
SUBTITLE:--Johnny.k feat. Sakura Tange/Granblue Fantasy
SUBTITLEJA:オイラ
BPM:100
WAVE:Its Better to Create One Cute Girl Than to Create the World in 7 Days.ogg
OFFSET:-0.093
DEMOSTART:84.343
COURSE:Hard
LEVEL:6
BALLOON:7,6
SCOREINIT:750
SCOREDIFF:180
#START
00000111,
2,
2,
2,
2,
2,
2,
0,
00000700, //9
#BPMCHANGE 186
#SCROLL 0.54
8202,
0202,
3202,
0202,
3202,
0202,
10010001,
01101020, //17
1212,
1212,
1212,
10220020,
1212,
1212,
1212,
10004400, //25
10200200,
20020020,
10200200,
20020020,
10200200,
20020020,
30000508,
0, //33
10201120,
1212,
10201120,
1212,
10201120,
1214,
10010005,
08, //41
2200,
10012001,
01012010,
10012001,
01012000,
20012001,
01012010,
10012001, //49
01012000,
10012000,
10012000,
10012012,
10012110,
10012000,
10012020,
20120120,
78, //58
#GOGOSTART
1313,
1330,
1313,
1330,
1313,
1311,
4444,
4434, //66
1313,
1330,
1313,
1330,
30040000,
30040100,
10101012,
03334000, //74
1212,
1212,
1212,
10220010,
1212,
1212,
1212,
10004400,
5,
0008, //84
#END
COURSE:Normal
LEVEL:3
BALLOON:
SCOREINIT:2200
SCOREDIFF:500
#START
0,
0,
0,
0,
0,
0,
0,
0,
0, //9
#BPMCHANGE 186
#SCROLL 0.54
1,
0,
1,
0,
1,
0,
10010001,
0, //17
1,
0,
1,
0,
1,
0,
1,
02, //25
1,
0,
1,
0,
1,
0,
10000002,
0, //33
11,
1,
11,
1,
11,
1,
10010001,
0, //41
2200,
12,
1,
12,
1,
12,
1,
12, //49
1,
1,
1,
12,
1,
1,
1,
10000001,
0, //58
#GOGOSTART
11,
1110,
11,
1110,
1,
1,
22,
2, //66
11,
1110,
11,
1110,
1,
1,
10002001,
01, //74
1,
0,
1,
0,
1,
0,
1,
01,
5,
0008, //84
#END