Files
2023-06-15 19:00:23 -05:00

399 lines
11 KiB
Plaintext

//TJADB Project
TITLE:KAGYUKIYO
TITLEJA:KAGYUKIYO
SUBTITLE:--Yuuji Masubuchi
BPM:66
WAVE:KAGYUKIYO.ogg
OFFSET:-4.092
DEMOSTART:39.146
COURSE:Oni
LEVEL:8
BALLOON:17
SCOREINIT:680
SCOREDIFF:170
#START
300000000000000000000000
#BPMCHANGE 64.94
#SCROLL 1.01
300000000000000000000000,
#BPMCHANGE 63.91
#SCROLL 1.03
300000000000
#BPMCHANGE 62.26
#SCROLL 1.06
300000000000
#BPMCHANGE 65.69
#SCROLL 1
600000000000000000000000,
000000000000000000000000000000000000000000000008,
000000000000000000000000000000000000000000000000,
#BPMCHANGE 63.22
#SCROLL 1.04
100000000000200000200000
#BPMCHANGE 64.72
#SCROLL 1.01
100000100000100000100000,
#BPMCHANGE 63.04
#SCROLL 1.04
200000000000000000200000
#BPMCHANGE 65.64
#SCROLL 1
200000000000000000000000,
#BPMCHANGE 65.91
100000000000200000200000
#BPMCHANGE 64.99
#SCROLL 1.01
100000100000100000100000,
#MEASURE 2/4
#BPMCHANGE 65.25
200000000000
#BPMCHANGE 64.6
#SCROLL 1.02
200000200000,
#MEASURE 4/4
#BPMCHANGE 65.42
#SCROLL 1
100000100100200000000000
#BPMCHANGE 64.86
#SCROLL 1.01
100200100100200000000000,
100100100200000100000100000100000100100200000000,
#BPMCHANGE 65.1
100000100100200100000100100000100100200100000100,
#BPMCHANGE 65.06
100000100100200100000100100100200000100100200000,
#BPMCHANGE 64.95
100000100100200100000100100000100100200100000100,
#BPMCHANGE 64.87
100000100100200100000100100100200000100100200000,
#MEASURE 2/4
100000100100100100100100,
#MEASURE 4/4
#BPMCHANGE 65.28
000000100100200000100100000000100100200000100100,
#BPMCHANGE 65
000000100100200000100100100000100000100000100000,
000000100100200000100100000000100100200000100100,
#BPMCHANGE 64.67
#SCROLL 1.02
000000100100200000100100100000100000100100100000,
#MEASURE 2/4
#BPMCHANGE 65.51
#SCROLL 1
100000100000200200100000,
#GOGOSTART
#MEASURE 4/4
#BPMCHANGE 128.25
#SCROLL 1.01
100000000100100000000100100000000100100000200000,
#BPMCHANGE 131.05
#SCROLL 0.99
100000000100100000000100100000000100100200200100,
100000000100100000000100100000000100100000200000,
#BPMCHANGE 129.15
#SCROLL 1.01
100000000100100000000100100200200100100200200100,
#BPMCHANGE 130.66
#SCROLL 1
100000000100100000000100100000000100100000200000,
100000000100100000000100100000000100100200200100,
#BPMCHANGE 129.24
#SCROLL 1.01
100000000100100000000100100200200100100000100200,
200100100000100200200100100000000000000000000000,
#BPMCHANGE 130
#SCROLL 1.11
100000200000100100200000100000200000100100200000,
100000200000100100200000100000200000100100200000,
100000200000100100200000100000200000100100200000,
100000200000100100200000100100200100100100200100,
#BPMCHANGE 130.53
100000200000100100200000100000200000100100200000,
#BPMCHANGE 130.21
100000200000100100200000100000200000100100200000,
#MEASURE 8/4
#BPMCHANGE 129.91
100000200000100100200000100000200000100100200000700000000000000000000000000000000800000000000000,
#BPMCHANGE 129.58
#SCROLL 0.57
300000000000000000000000300000000000300000000000
#BPMCHANGE 130.82
300000000000000000000000200000200000100000000000,
#BPMCHANGE 129.77
100000100000200000100200100000100000200000100200100000100000200000100200100000100000200000100200,
#MEASURE 10/4
100000100000200000100200100200100000100100100000100000100000200000100200100200100000100100100000
#GOGOEND
#BPMCHANGE 65.39
#SCROLL 1
000000000000100100100000,
#MEASURE 4/4
#BPMCHANGE 65
#SCROLL 1.01
100000100100200100000100100000100100200100000100,
#BPMCHANGE 64.78
100000100100200100000100100000000000300000000000,
#BPMCHANGE 65.18
100000100100200100000100100000100100200100000100,
#BPMCHANGE 64.84
100000100100200100000100100000000000300000000000,
#BPMCHANGE 65.1
100000100100200100000100100000000000300000000000,
#BPMCHANGE 65.06
100000100100200100000100100000000000300000000000,
#BPMCHANGE 65.14
100000100100200100000100100000000000300000000000,
#BPMCHANGE 65
100000100100100100000000300000000000000000000000,
#END
COURSE:Hard
LEVEL:8
BALLOON:16,14
SCOREINIT:640
SCOREDIFF:160
#START
#BPMCHANGE 65
33,
3360,
,
008000000000000000000000000000000000000000000000,
10221111,
20022000,
10221111,
#MEASURE 2/4
2022,
#MEASURE 4/4
1000200010112000,
7000000000001200,
1011220010112200,
1011220011101110,
1011220010112200,
1011220011101110,
#MEASURE 2/4
3,
#MEASURE 4/4
0011201100112011,
0011201110101010,
0011201100112011,
0011201110101110,
#MEASURE 2/4
10101110,
#GOGOSTART
#MEASURE 4/4
#BPMCHANGE 130
1001100110011020,
1001100110011020,
1001100110011020,
1001100022222000,
1001100110011020,
1001100110011020,
1111100022222011,
1110222210000000,
#SCROLL 1.1
1020111010201110,
1020111010201110,
1020111010201110,
1020111011101110,
1020111010201110,
1020111010201110,
1020111010201110,
7008,
#MEASURE 8/4
#SCROLL 0.5
3000303030002210,
10102002101020021010200210102002,
10102002111011101010200211101110,
#GOGOEND
#MEASURE 2/4
#BPMCHANGE 65
#SCROLL 1
10001110,
#MEASURE 4/4
1011220010112200,
1011220010003000,
1011220010112200,
1011220010003000,
1011110110003000,
1011220220003000,
1011110110003000,
1011220030000000,
#END
COURSE:Normal
LEVEL:6
BALLOON:15,15
SCOREINIT:870
SCOREDIFF:210
#START
#BPMCHANGE 65
300000000000000000000000300000000000000000000000,
300000000000000000000000300000000000000000000000,
600000000000000000000000000000000000000000008000,
000000000000000000000000000000000000000000000000,
100000000000200000000000100000100000100000100000,
100000000000000000100000100000000000000000000000,
100000000000200000000000100000100000100000100000,
#MEASURE 2/4
100000000000100000100000,
#MEASURE 4/4
500000000000000000000000000000000000000000008000,
000000000000000000000000000000000000000000000000,
100000100000100000000000100000100000100000000000,
100000000000100000100000100000000000000000000000,
100000100000100000000000100000100000100000000000,
100000000000100000100000100000000000000000000000,
#MEASURE 2/4
100000000000000000000000,
#MEASURE 4/4
100000100000100000200000100000100000100000200000,
100000100000100000200000300000300000300000000000,
100000200000200000100000100000200000200000100000,
100000200000200000100000300000300000300000000000,
#MEASURE 2/4
400000400000400000000000,
#MEASURE 4/4
#GOGOSTART
#BPMCHANGE 130
100000000000200000000000100000000000200000000000,
100000000000100000100000100000000000000000000000,
100000000000100000000000500000000000000000000000,
000000000000000000000000800000000000000000000000,
100000000000100000100000100000000000000000000000,
100000000000100000000000100000000000000000000000,
100000000000100000000000700000000000000000000000,
000000000000000000000000800000000000000000000000,
100000000000200000000000100000000000200000000000,
100000000000100000100000100000000000000000000000,
100000000000100000000000500000000000000000000000,
000000000000000000000000800000000000000000000000,
100000000000100000100000100000000000000000000000,
100000000000100000000000100000000000000000000000,
100000000000100000000000700000000000000000000000,
000000000000000000000000000000800000000000000000,
#MEASURE 8/4
#SCROLL 0.5
300000000000000000000000300000000000300000000000300000000000000000000000100000100000100000000000,
100000000000100000000000200000000000100000000000100000000000100000000000200000000000100000000000,
100000000000200000000000100000000000200000000000100000000000200000000000100000000000200000000000,
#MEASURE 2/4
#GOGOEND
#BPMCHANGE 65
#SCROLL 1
300000000000300000300000,
#MEASURE 4/4
100000100100100000000000100000100100100000000000,
100000000000100000100000100000000000400000000000,
100000100100100000000000100000100100100000000000,
100000000000100000100000100000000000400000000000,
100000100100100000100000100000000000300000000000,
100000100100100000100000100000000000300000000000,
100000100100100000100100100000000000300000000000,
100000100100100000000000300000000000000000000000,
#END
COURSE:Easy
LEVEL:5
BALLOON:10,10
SCOREINIT:610
SCOREDIFF:140
#START
#BPMCHANGE 65
300000000000000000000000300000000000000000000000,
300000000000000000000000300000000000000000000000,
600000000000000000000000000000000000000000008000,
000000000000000000000000000000000000000000000000,
100000000000100000000000100000100000100000100000,
100000000000000000100000100000000000000000000000,
100000000000100000000000100000100000100000100000,
#MEASURE 2/4
100000000000100000100000,
#MEASURE 4/4
500000000000000000000000000000000000000000008000,
000000000000000000000000000000000000000000000000,
100000000000100000000000100000000000100000000000,
100000000000100000100000100000000000000000000000,
100000000000100000000000100000000000100000000000,
100000000000100000100000100000000000000000000000,
#MEASURE 2/4
100000000000000000000000,
#MEASURE 4/4
100000000000200000000000100000000000200000000000,
100000000000200000000000300000300000300000000000,
100000000000200000000000100000000000200000000000,
100000000000200000000000300000300000300000000000,
#MEASURE 2/4
400000400000400000000000,
#MEASURE 4/4
#GOGOSTART
#BPMCHANGE 130
100000000000200000000000100000000000200000000000,
100000000000100000000000100000000000000000000000,
100000000000000000000000500000000000000000000000,
000000000000000000800000000000000000000000000000,
100000000000100000000000100000000000000000000000,
100000000000100000000000100000000000000000000000,
100000000000000000000000700000000000000000000000,
000000000000000000800000000000000000000000000000,
100000000000200000000000100000000000200000000000,
100000000000100000000000100000000000000000000000,
100000000000000000000000500000000000000000000000,
000000000000000000800000000000000000000000000000,
100000000000100000000000100000000000000000000000,
100000000000100000000000100000000000000000000000,
100000000000000000000000700000000000000000000000,
000000000000000000000000000000800000000000000000,
#MEASURE 8/4
#SCROLL 0.5
300000000000000000000000000000000000000000000000300000000000000000000000300000000000000000000000,
100000000000100000000000100000000000100000000000200000000000200000000000200000000000200000000000,
100000000000100000000000100000000000100000000000200000000000200000000000200000000000200000000000,
#MEASURE 2/4
#GOGOEND
#BPMCHANGE 65
#SCROLL 1
300000000000300000300000,
#MEASURE 4/4
100000000000100000000000100000000000100000000000,
100000000000100000100000100000000000400000000000,
100000000000100000000000100000000000100000000000,
100000000000100000100000100000000000400000000000,
100000000000100000100000100000000000400000000000,
100000000000100000100000100000000000400000000000,
100000000000300000300000300000000000400000000000,
300000300000300000000000300000000000000000000000,
#END