Files
ESE/07 Game Music/Katamari on the Rocks Main Theme/Katamari on the Rocks Main Theme.tja

707 lines
8.5 KiB
Plaintext
Raw Permalink Blame History

This file contains ambiguous Unicode characters
This file contains Unicode characters that might be confused with other characters. If you think that this is intentional, you can safely ignore this warning. Use the Escape button to reveal them.
//TJADB Project
TITLE:Katamari on the Rocks ~Main Theme~
TITLEJA:塊オンザロック
SUBTITLE:--Yuu Miyake feat. Masayuki Tanaka/Katamari Damacy
SUBTITLEJA:「塊魂」より
BPM:160
WAVE:Katamari on the Rocks Main Theme.ogg
OFFSET:-6.012
DEMOSTART:98.996
COURSE:Oni
LEVEL:8
STYLE:Double
BALLOON:20
#START P1
,
,
3,
500000000000000000000000000000000008000000000000,
10010010,
00002220,
1001,
01012220,
10010010,
00002220,
1001,
01012220,
0202,
0202,
20202202,
02021010,
1001101010101000,
1001101020202000,
1001101010101050,
000000000000000000000008000000000000000000000000,
20202202,
02021010,
20202202,
02021010,
1001101011101000,
1001101020222000,
1011101010100050,
000000000000000000000008000000000000000000000000,
20202202,
0020002010111000,
10101110,
22202220,
7,
0000000000080000,
40404003,
03030030,
,
11111111,
,
0003,
11111111,
,
40040403,
03030000,
,
11111111,
,
33030000,
10220000,
10000220,
10101120,
10112020,
11201120,
1110,
10101220,
10122020,
12201220,
1110,
20202202,
02021010,
0202,
0202,
20202202,
02021010,
20202202,
02021010,
1001101010101000,
1001101020202000,
1001101010100050,
000000000000000000000008000000000000000000000000,
20202202,
0020002010111000,
1010101011100050,
000000000000000000000008000000000000000000000000,
1001101010111000,
1001101020222000,
11101101,
01010100,
1011100010111000,
1011100010111000,
1011101110003000,
04044040,
1010201110202000,
1010201110202000,
1011102020200020,
500000000000000000000008000000000000000000000000,
1011101010111010,
1011101000222020,
1110101011101010,
04044040,
1001101010101000,
1001101040004000,
1001100010001010,
01010107,
,
,
08000000,
#END
#START P2
,
,
3,
500000000000000000000000000000000008000000000000,
1001,
01012220,
10010010,
00002220,
1001,
01012220,
10010010,
00002220,
20202202,
02021010,
0202,
0202,
20202202,
02021010,
20202202,
02021010,
1001101010101000,
1001101020202000,
1001101010100050,
000000000000000000000008000000000000000000000000,
1001101010111000,
1001101020222000,
11101101,
01010100,
7,
0000000000080000,
,
0003,
11111111,
,
40404003,
03030030,
,
11111111,
00000003,
03030000,
11111111,
,
4440,
33030000,
10000220,
10220000,
11201010,
20201011,
11201120,
1011,
12201010,
20201012,
12201220,
1011,
0202,
0202,
20202202,
02021010,
1001101010101000,
1001101020202000,
1001101010100050,
000000000000000000000008000000000000000000000000,
20202202,
02021010,
20202202,
02021010,
1001101011101000,
1001101020222000,
1011101010100050,
000000000000000000000008000000000000000000000000,
20202202,
0020002010111000,
10101110,
22202220,
1010201110202000,
1010201110202000,
1011102020200020,
04044040,
1011100010111000,
1011100010111000,
1011101110003000,
500000000000000000000008000000000000000000000000,
1011101000222020,
1011101010111010,
1010111010101110,
04044040,
1001101040004000,
1001101010101000,
1000100010011010,
01010107,
,
,
08000000,
#END
STYLE:Single
BALLOON:24
SCOREINIT:560
SCOREDIFF:143
#START
,
,
3,
500000000000000000000000000000000008000000000000,
10010010,
10002220,
10010010,
10002220,
10010010,
10002220,
10010010,
10002220,
20202202,
02022020,
20202202,
02022020,
1001102010111020,
1001102010222020,
1001102011100050,
000000000000000000000008000000000000000000000000,
1001102010111020,
1001102010222020,
1001102011100050,
000000000000000000000008000000000000000000000000,
1201102012111020,
1201102011222020,
1011202010100050,
000000000000000000000008000000000000000000000000,
1001102010111020,
1001102010222020,
1001102010011020,
12120200,
2011102011102011,
1011102011111000,
40402223,
03030030,
11111111,
11111111,
40402201,
13030030,
11111111,
11111111,
40040401,
13030000,
11111111,
11111111,
4440,
33030000,
1001102000000000,
1001102000000000,
1001102011102000,
1001102011102000,
1110200011102000,
1001102011102000,
1001102011102000,
1001102011102000,
1110200011102000,
1001102010000000,
20202202,
02022020,
20202202,
02022000,
1001102010111020,
1001102010222020,
1001102011100050,
000000000000000000000008000000000000000000000000,
1001102010111020,
1001102010222020,
1001102011100050,
000000000000000000000008000000000000000000000000,
1201102012111020,
1201102011222020,
1011202010100050,
000000000000000000000008000000000000000000000000,
1001102010111020,
1001102010222020,
1001102010011020,
12120200,
1011201020112010,
1011201020222020,
1011201020102010,
04044040,
1011201020112010,
1011201020222020,
1011201020102010,
500000000000000000000008000000000000000000000000,
#GOGOSTART
1011201012021020,
1011201012021020,
1011201020102010,
04044040,
1001102011011020,
1001102010222020,
1001102011100010,
01010107,
,
000000000000000000000000000000000000000000000008,
#GOGOEND
#END
COURSE:Hard
LEVEL:7
BALLOON:20,24
SCOREINIT:560
SCOREDIFF:140
#START
,
,
3,
500000000000000000000000000000000008000000000000,
10010010,
00002220,
10010010,
00002220,
10010010,
00002220,
10010010,
00002220,
20202202,
02022000,
20202202,
02022000,
1001101010101000,
1001101020202000,
1001101010100050,
000000000000000000000008000000000000000000000000,
1001101010101000,
1001101020202000,
1001101010100050,
000000000000000000000008000000000000000000000000,
1011101010101000,
1011101020202000,
1011101010100050,
000000000000000000000008000000000000000000000000,
1001101010101000,
1001101020202000,
11101110,
1111,
7,
0008,
40404003,
03030030,
11111111,
11111111,
40404003,
03030030,
11111111,
11111111,
40040003,
03030000,
11111111,
11111111,
4440,
33030000,
10220000,
10220000,
10101120,
10112020,
11201120,
1110,
10101220,
10122020,
12201220,
1110,
20202202,
02022000,
20202202,
02022000,
1001101010101000,
1001101020202000,
1001101010100050,
000000000000000000000008000000000000000000000000,
1001101010101000,
1001101020202000,
1001101010100050,
000000000000000000000008000000000000000000000000,
1011101010101000,
1011101020202000,
1011101010100050,
000000000000000000000008000000000000000000000000,
1001101010101000,
1001101020202000,
11101110,
11111110,
1011100010111000,
1011101000222020,
1011100010101010,
04044040,
1011100010111000,
1011101000222020,
1011100010101010,
500000000000000000000008000000000000000000000000,
#GOGOSTART
1011101010111010,
1011101000222020,
1011101010101010,
04044040,
1001101010101000,
1001101020202000,
1001100010011010,
01010107,
,
,
#GOGOEND
8,
,
,
#END
COURSE:Normal
LEVEL:5
BALLOON:16,20
SCOREINIT:600
SCOREDIFF:168
#START
,
,
3,
500000000000000000000000000000000008000000000000,
10010010,
0022,
10010010,
0022,
10010010,
0022,
10010010,
0022,
20202002,
02002000,
20202002,
02002000,
10101110,
11020000,
10101005,
000000000000000000000008000000000000000000000000,
10101110,
11020000,
10101005,
000000000000000000000008000000000000000000000000,
11101110,
11022000,
10101005,
000000000000000000000008000000000000000000000000,
10101110,
11020000,
1111,
1110,
7,
0008,
4440,
30030000,
11101110,
11101110,
4440,
30030000,
11101110,
11101110,
44,
30030000,
11101110,
11101110,
4440,
30030000,
10110000,
10110000,
10201120,
10200220,
10201120,
1,
10201120,
10200220,
10201120,
1,
20202002,
02002000,
20202002,
02002000,
10101120,
10120000,
10101005,
000000000000000000000008000000000000000000000000,
10101120,
10120000,
10101005,
000000000000000000000008000000000000000000000000,
11101110,
10120220,
10101005,
000000000000000000000008000000000000000000000000,
10101120,
10120000,
1111,
1110,
10201120,
11202000,
1212,
0444,
10201120,
11202000,
1212,
500000000000000000000008000000000000000000000000,
#GOGOSTART
10201120,
11202000,
1212,
0444,
10201120,
11202000,
1212,
10101007,
,
,
#GOGOEND
8,
,
,
#END
COURSE:Easy
LEVEL:4
SCOREINIT:470
SCOREDIFF:145
#START
,
,
3,
500000000000000000000000000000000008000000000000,
10010010,
02,
10010010,
02,
10010010,
02,
10010010,
02,
0202,
0202,
0202,
0200,
10001110,
10020000,
10101005,
000000000000000000000008000000000000000000000000,
10001110,
10020000,
10101005,
000000000000000000000008000000000000000000000000,
30001110,
1110,
10101005,
000000000000000000000008000000000000000000000000,
10001110,
10020000,
1110,
11,
500000000000000000000000000000000000000000000008,
,
44,
33,
1111,
1111,
44,
33,
1111,
1111,
44,
33,
1111,
1111,
44,
33,
1100,
1100,
11,
1100,
11,
1100,
1110,
1100,
1110,
1100,
0202,
0202,
0202,
0200,
10001110,
10020000,
10101005,
000000000000000000000008000000000000000000000000,
10001110,
10020000,
10101005,
000000000000000000000008000000000000000000000000,
30001110,
1110,
10101005,
000000000000000000000008000000000000000000000000,
10001110,
10020000,
1110,
11,
1111,
10111000,
1111,
0404,
1111,
10111000,
1111,
500000000000000000000008000000000000000000000000,
#GOGOSTART
1111,
10111000,
1111,
0404,
1111,
10111000,
1110,
11,
500000000000000000000000000000000000000000000008,
,
#GOGOEND
,
,
,
#END