553 lines
24 KiB
Plaintext
553 lines
24 KiB
Plaintext
//TJADB Project
|
|
TITLE:Katamari on the Swing
|
|
TITLEJA:塊オンザスウィング
|
|
SUBTITLE:--Yuu Miyake feat. Shigeru Matsuzaki/Katamari Damacy
|
|
SUBTITLEJA:みんな大好き塊魂
|
|
BPM:204
|
|
WAVE:Katamari on the Swing.ogg
|
|
OFFSET:-2.558
|
|
DEMOSTART:30.467
|
|
|
|
COURSE:Oni
|
|
LEVEL:8
|
|
SCOREINIT:630
|
|
SCOREDIFF:110
|
|
|
|
|
|
#START
|
|
|
|
|
|
100000000000200000000000000000000000200000000000,
|
|
000000000000200000000000100000001000200000001000,
|
|
000000000000200000000000000000000000200000000000,
|
|
200000002000200000002000000000002000200000000000,
|
|
100000000000200000000000000000000000200000000000,
|
|
000000000000200000000000100000001000200000001000,
|
|
000000000000200000000000000000000000200000000000,
|
|
200020002000200000002000000000002000200020002000,
|
|
100000000000200000000000000000000000200000000000,
|
|
000000000000200000000000100000001000200000001000,
|
|
000000000000200000000000000000000000200000000000,
|
|
200020002000200000002000200000002000200000002000,
|
|
100000000000200000000000000000000000200000000000,
|
|
000000000000200000000000100000001000200000001000,
|
|
000000000000200000000000000000000000200000000000,
|
|
100000001000200000001000000000001000200000000000,
|
|
300000000000000000300000000000000000300000000000,
|
|
000000300000000000000000400000000000000000000000,
|
|
300000000000000000300000000000000000300000000000,
|
|
000000300000000000000000400000004000000000000000,
|
|
#BPMCHANGE 200.27
|
|
100000000000200000000000000000000000200000000000,
|
|
#BPMCHANGE 201.69
|
|
000000000000200000000000000000000000200000000000,
|
|
#BPMCHANGE 205.84
|
|
100000000000100000000000100000000000100000000000,
|
|
300000000000300000000000000000002000200000000000,
|
|
|
|
#GOGOSTART
|
|
#BPMCHANGE 204
|
|
100000000000200000000000100000001000200000000000,
|
|
100000002000200000001000000000002000100000002000,
|
|
100000002000200000002000100000001000000000002000,
|
|
000000002000200000002000100000001000200000001000,
|
|
000000000000200000000000100000001000200020002000,
|
|
100000001000200000001000000000002000200000000000,
|
|
100000002000100000002000100000001000000000001000,
|
|
000000002000000000001000000000002000200000000000,
|
|
100000000000200000000000100000001000200000000000,
|
|
100000002000200000001000000000002000100000002000,
|
|
100000002000200000002000100000001000000000002000,
|
|
000000002000200000002000100000001000200000001000,
|
|
000000000000200000000000100000001000200020002000,
|
|
100000001000200000001000000000002000200000000000,
|
|
100000002000200000002000100000001000000000002000,
|
|
000000001000000000001000100000000000200000000000,
|
|
100000000000200000000000100000002000200000000000,
|
|
100000000000200000000000100000002000200000000000,
|
|
100000000000200000000000100000000000200000000000,
|
|
100000000000000000000000100000000000100000000000,
|
|
500000000000000000000000000000000000000000000000,
|
|
000000000000000000000008000000000000100000000000,
|
|
100000000000400000000000100000000000400000000000,
|
|
100000000000400000000000100000000000400000400000,
|
|
|
|
#GOGOEND
|
|
000000000000000000000000000000000000000000000000,
|
|
#BPMCHANGE 205.16
|
|
#SCROLL 0.97
|
|
200000002000200000002000000000002000200000002000,
|
|
#BPMCHANGE 204
|
|
#SCROLL 1
|
|
100000000000000000000000200000000000000000000000,
|
|
100000001000100000002000000000002000200000000000,
|
|
100000000000000000000000200000000000000000000000,
|
|
100000001000100000002000000000002000200000000000,
|
|
100000000000200000000000100000000000000000000000,
|
|
100000002000200000001000000000000000000000000000,
|
|
100000000000200000000000000000000000200000000000,
|
|
000000000000200000000000000000001000100000000000,
|
|
100000000000000000000000200000000000000000002000,
|
|
100000002000200000001000000000001000200000000000,
|
|
100000000000000000001000200000000000000000002000,
|
|
100000002000200000001000000000001000200000000000,
|
|
100000001000100000002000200000002000200000001000,
|
|
100000001000100000002000200000002000200000000000,
|
|
100000002000200000002000200000002000200000000000,
|
|
300000002000200000000000300000002000200020002000,
|
|
100000000000200000000000100000001000200000000000,
|
|
100010001000200000002000100000001000200000000000,
|
|
100000000000200000000000100000001000200000000000,
|
|
100010001000200000002000000000001000200000000000,
|
|
100000001000200000000000100000001000200000000000,
|
|
100000001000200000001000000000002000100000000000,
|
|
100000000000200000000000100000001000200000000000,
|
|
100010001000200000002000100000001000200000002000,
|
|
100000002000200000001000000000001000200000000000,
|
|
100000002000200000001000000000001000200000000000,
|
|
100000002000200000001000000000002000200000002000,
|
|
100000001000200020002000100000002000200000000000,
|
|
#BPMCHANGE 202
|
|
300000000000000000300000000000000000300000000000,
|
|
#BPMCHANGE 204
|
|
000000300000000000000000200020002000200000000000,
|
|
300000000000000000300000000000000000300000000000,
|
|
000000300000000000000000400000004000000000000000,
|
|
500000000000000000000000000000000000000000000000,
|
|
000000000000000000000008000000000000000000000000,
|
|
300000000000300000000000300000000000300000000000,
|
|
300000000000600000000000000000000008000000000000,
|
|
|
|
#GOGOSTART
|
|
100000000000200000000000100000001000200000000000,
|
|
100000002000200000001000000000002000100000002000,
|
|
100000002000200000002000100000001000000000002000,
|
|
000000002000200000002000100000001000200000001000,
|
|
000000000000200000000000100000001000200020002000,
|
|
100000001000200000001000000000002000200000000000,
|
|
100000002000100000002000100000001000000000001000,
|
|
000000002000000000001000000000002000200000000000,
|
|
100000000000200000000000100000001000200000000000,
|
|
100000002000200000001000000000002000100000002000,
|
|
100000002000200000002000100000001000000000002000,
|
|
000000002000200000002000100000001000200000001000,
|
|
000000000000200000000000100000001000200020002000,
|
|
100000001000200000001000000000002000200000000000,
|
|
100000002000200000002000100000001000000000002000,
|
|
000000001000000000001000100000000000200000000000,
|
|
100000000000200000000000100000002000200000000000,
|
|
100000000000100000000000100000000000100000000000,
|
|
100000000000200000000000100000000000200000000000,
|
|
100000000000000000000000100000000000100000000000,
|
|
500000000000000000000000000000000000000000000000,
|
|
000000000000000000000008000000000000100000000000,
|
|
100000000000400000000000100000000000400000000000,
|
|
100000000000400000000000100000000000400000400000,
|
|
|
|
#GOGOEND
|
|
000000001000000000000000100000000000100000000000,
|
|
100000001000100000001000000000000000500000000000,
|
|
000000000000000000000000000000000000000000000000,
|
|
000000000000000000000008000000000000300000000000,
|
|
|
|
|
|
#END
|
|
|
|
|
|
COURSE:Hard
|
|
LEVEL:7
|
|
SCOREINIT:480
|
|
SCOREDIFF:120
|
|
|
|
|
|
#START
|
|
|
|
|
|
100000000000200000000000000000000000200000000000,
|
|
000000000000200000000000000000000000200000000000,
|
|
100000000000200000000000000000000000200000000000,
|
|
200000002000200000002000000000002000200000000000,
|
|
100000000000200000000000000000000000200000000000,
|
|
000000000000200000000000000000000000200000000000,
|
|
100000000000200000000000000000000000200000000000,
|
|
200020002000200000002000000000002000200000000000,
|
|
100000000000200000000000000000000000200000000000,
|
|
000000000000200000000000000000000000200000000000,
|
|
100000000000200000000000000000000000200000000000,
|
|
200020002000200000002000200000002000200000002000,
|
|
100000000000200000000000000000000000200000000000,
|
|
100000000000200000000000000000000000200000000000,
|
|
100000000000200000000000000000000000200000000000,
|
|
100000001000000000001000000000002000200000000000,
|
|
300000000000000000300000000000000000300000000000,
|
|
000000300000000000000000400000000000000000000000,
|
|
300000000000000000300000000000000000300000000000,
|
|
000000300000000000000000400000004000000000000000,
|
|
100000000000200000000000000000000000200000000000,
|
|
000000000000200000000000000000000000200000000000,
|
|
100000000000100000000000100000000000100000000000,
|
|
300000000000300000000000000000002000200000000000,
|
|
#GOGOSTART
|
|
100000000000200000000000100000001000200000000000,
|
|
100000001000200000001000000000002000200000000000,
|
|
100000002000200000000000100000002000200000000000,
|
|
500000000000000000008000000000001000000000001000,
|
|
000000000000200000000000100000001000200000000000,
|
|
100000001000200000001000000000002000200000000000,
|
|
100000002000200000000000100000002000200000000000,
|
|
100000002000200000002000200000002000200000000000,
|
|
100000000000200000000000100000001000200000000000,
|
|
100000001000200000001000000000002000200000000000,
|
|
100000002000200000000000100000002000200000000000,
|
|
500000000000000000008000000000001000000000001000,
|
|
000000000000200000000000100000001000200000000000,
|
|
100000001000200000001000000000002000200000000000,
|
|
100000002000200000000000100000002000200000000000,
|
|
100000001000100000000000100000000000000000000000,
|
|
100000000000000000000000100000000000000000000000,
|
|
100000000000100000000000100000000000100000000000,
|
|
100000000000000000000000100000000000000000000000,
|
|
100000000000000000000000100000000000100000000000,
|
|
500000000000000000000000000000000000000000000000,
|
|
000000000000000000008000000000000000100000000000,
|
|
100000000000400000000000100000000000400000000000,
|
|
100000000000400000000000100000000000400000400000,
|
|
#GOGOEND
|
|
000000000000000000000000000000000000000000000000,
|
|
100000002000200000002000000000000000000000000000,
|
|
100000000000000000000000200000000000000000000000,
|
|
100000001000100000000000200000000000000000000000,
|
|
100000000000000000000000200000000000000000000000,
|
|
100000001000100000000000200000000000200000000000,
|
|
100000000000200000000000100000000000000000000000,
|
|
100000002000200000000000100000000000000000000000,
|
|
100000000000200000000000000000000000200000000000,
|
|
000000000000200000000000000000000000000000000000,
|
|
100000000000000000000000200000000000000000000000,
|
|
100000002000200000000000100000000000000000000000,
|
|
100000000000000000000000200000000000000000000000,
|
|
100000002000200000000000100000000000200000000000,
|
|
100000001000100000000000200000002000200000000000,
|
|
100000001000100000000000200000000000000000000000,
|
|
100000002000200000002000200000000000200000000000,
|
|
300000000000000000000000300000000000000000000000,
|
|
100000000000200000000000100000001000200000000000,
|
|
100000001000200000001000200000000000000000000000,
|
|
100000000000200000000000100000001000200000000000,
|
|
100000001000200000001000200000000000200000000000,
|
|
100000000000200000000000100000001000200000000000,
|
|
100000001000200000001000200000000000000000000000,
|
|
100000000000200000000000100000001000200000000000,
|
|
100000001000200000001000200000000000200000000000,
|
|
100000002000200000001000000000001000200000000000,
|
|
100000002000200000001000000000001000200000000000,
|
|
100000002000200000001000000000002000200000000000,
|
|
100000000000200000000000100000000000200000000000,
|
|
300000000000000000300000000000000000300000000000,
|
|
000000300000000000000000400000000000000000000000,
|
|
300000000000000000300000000000000000300000000000,
|
|
000000300000000000000000400000004000000000000000,
|
|
500000000000000000000000000000000000000000000000,
|
|
000000000000000000800000000000000000000000000000,
|
|
300000000000300000000000300000000000300000000000,
|
|
300000000000600000000000000000800000000000000000,
|
|
#GOGOSTART
|
|
100000000000200000000000100000001000200000000000,
|
|
100000001000200000001000000000002000200000000000,
|
|
100000002000200000000000100000002000200000000000,
|
|
500000000000000000008000000000002000000000002000,
|
|
000000000000200000000000100000001000200000000000,
|
|
100000001000200000001000000000002000200000000000,
|
|
100000002000200000000000100000002000200000000000,
|
|
100000002000200000002000200000002000200000000000,
|
|
100000000000200000000000100000001000200000000000,
|
|
100000001000200000001000000000002000200000000000,
|
|
100000002000200000000000100000002000200000000000,
|
|
500000000000000000008000000000002000000000002000,
|
|
000000000000200000000000100000001000200000000000,
|
|
100000001000200000001000000000002000200000000000,
|
|
100000002000200000000000100000002000200000000000,
|
|
100000001000100000000000100000000000000000000000,
|
|
100000000000100000000000100000000000000000000000,
|
|
100000000000100000000000100000000000100000000000,
|
|
100000000000000000000000100000000000000000000000,
|
|
100000000000000000000000100000000000100000000000,
|
|
500000000000000000000000000000000000000000000000,
|
|
000000000000000000008000000000000000100000000000,
|
|
100000000000400000000000100000000000400000000000,
|
|
100000000000400000000000100000000000400000400000,
|
|
#GOGOEND
|
|
000000001000000000000000100000000000100000000000,
|
|
100000001000100000001000000000000000500000000000,
|
|
000000000000000000000000000000000000000000000000,
|
|
000000000000000000008000000000000000300000000000,
|
|
|
|
|
|
#END
|
|
|
|
|
|
COURSE:Normal
|
|
LEVEL:6
|
|
SCOREINIT:570
|
|
SCOREDIFF:200
|
|
|
|
|
|
#START
|
|
|
|
|
|
100000000000200000000000000000000000200000000000,
|
|
000000000000200000000000000000000000200000000000,
|
|
100000000000200000000000000000000000200000000000,
|
|
000000002000200000000000000000000000000000000000,
|
|
100000000000200000000000000000000000200000000000,
|
|
000000000000200000000000000000000000200000000000,
|
|
500000000000000000000000000000000000000000008000,
|
|
000000000000000000000000000000000000000000000000,
|
|
100000000000200000000000000000000000200000000000,
|
|
000000000000200000000000000000000000200000000000,
|
|
100000000000200000000000000000000000200000000000,
|
|
000000002000200000000000000000000000000000000000,
|
|
100000000000200000000000000000000000200000000000,
|
|
000000000000200000000000000000000000200000000000,
|
|
500000000000000000000000000000000000000000008000,
|
|
000000000000000000000000000000000000000000000000,
|
|
100000000000000000000000000000000000100000000000,
|
|
000000000000000000000000300000000000000000000000,
|
|
100000000000000000000000000000000000100000000000,
|
|
000000000000000000000000300000000000000000000000,
|
|
000000000000200000000000000000000000200000000000,
|
|
000000000000200000000000000000000000000000000000,
|
|
100000000000000000000000100000000000000000000000,
|
|
300000000000300000000000000000000000000000000000,
|
|
#GOGOSTART
|
|
100000000000100000000000000000001000100000000000,
|
|
100000000000200000000000200000000000000000000000,
|
|
100000000000000000000000100000000000000000000000,
|
|
500000000000000000000000000800000000000000000000,
|
|
100000000000100000000000000000001000100000000000,
|
|
100000000000200000000000200000000000000000000000,
|
|
100000000000000000000000100000000000000000000000,
|
|
100000000000000000000000000000000000000000000000,
|
|
100000000000200000000000000000001000100000000000,
|
|
100000000000200000000000200000000000000000000000,
|
|
100000000000000000000000100000000000000000000000,
|
|
500000000000000000000000000800000000000000000000,
|
|
100000000000200000000000000000001000100000000000,
|
|
100000000000200000000000200000000000000000000000,
|
|
100000000000100000000000100000000000000000000000,
|
|
100000000000000000000000000000000000000000000000,
|
|
100000000000000000000000100000000000000000000000,
|
|
100000000000000000000000100000000000100000000000,
|
|
100000000000000000000000100000000000000000000000,
|
|
100000000000000000000000100000000000000000000000,
|
|
500000000000000000000000000000000000000000000000,
|
|
000000000800000000000000000000000000000000000000,
|
|
300000000000000000000000300000000000000000000000,
|
|
300000000000000000000000300000000000000000300000,
|
|
#GOGOEND
|
|
000000000000000000000000000000000000000000000000,
|
|
200000000000200000000000000000000000000000000000,
|
|
100000000000000000000000000000000000000000000000,
|
|
100000001000100000000000100000000000000000000000,
|
|
100000000000000000000000000000000000000000000000,
|
|
100000001000100000000000100000000000000000000000,
|
|
100000000000000000000000100000000000000000000000,
|
|
100000000000000000000000000000000000000000000000,
|
|
100000000000200000000000000000000000200000000000,
|
|
000000000000000000000000000000000000000000000000,
|
|
100000000000000000000000000000000000000000000000,
|
|
200000002000200000000000200000000000000000000000,
|
|
100000000000000000000000000000000000000000000000,
|
|
200000002000200000000000200000000000000000000000,
|
|
100000000000000000000000100000000000000000000000,
|
|
100000000000000000000000000000000000000000000000,
|
|
100000001000100000000000200000000000000000000000,
|
|
300000000000000000000000300000000000000000000000,
|
|
100000000000000000000000100000000000000000000000,
|
|
100000001000100000000000100000000000000000000000,
|
|
100000000000000000000000100000000000000000000000,
|
|
100000001000100000000000100000000000000000000000,
|
|
200000000000000000000000200000000000000000000000,
|
|
100000001000100000000000100000000000000000000000,
|
|
200000000000000000000000200000000000000000000000,
|
|
200000000000000000000000000000000000000000000000,
|
|
100000001000100000000000100000000000000000000000,
|
|
200000000000000000000000200000000000000000000000,
|
|
100000001000100000000000100000000000000000000000,
|
|
200000000000000000000000200000000000000000000000,
|
|
100000000000000000100000000000000000100000000000,
|
|
000000000000000000000000300000000000000000000000,
|
|
100000000000000000100000000000000000100000000000,
|
|
000000000000000000000000300000000000000000000000,
|
|
500000000000000000000000000000000000000000000000,
|
|
000000000000000000800000000000000000000000000000,
|
|
300000000000000000000000300000000000000000000000,
|
|
300000000000000000000000000000000000000000000000,
|
|
#GOGOSTART
|
|
100000000000100000000000000000001000100000000000,
|
|
100000000000200000000000200000000000000000000000,
|
|
100000000000000000000000100000000000000000000000,
|
|
500000000000000000000000000800000000000000000000,
|
|
100000000000100000000000000000001000100000000000,
|
|
100000000000200000000000200000000000000000000000,
|
|
100000000000000000000000100000000000000000000000,
|
|
100000000000000000000000000000000000000000000000,
|
|
100000000000200000000000000000001000100000000000,
|
|
100000000000200000000000200000000000000000000000,
|
|
100000000000000000000000100000000000000000000000,
|
|
500000000000000000000000000800000000000000000000,
|
|
100000000000200000000000000000001000100000000000,
|
|
100000000000200000000000200000000000000000000000,
|
|
100000000000000000000000100000000000000000000000,
|
|
100000000000000000000000000000000000000000000000,
|
|
100000000000000000000000100000000000000000000000,
|
|
100000000000000000000000100000000000100000000000,
|
|
100000000000000000000000100000000000000000000000,
|
|
100000000000000000000000100000000000000000000000,
|
|
500000000000000000000000000000000000000000000000,
|
|
000000000800000000000000000000000000000000000000,
|
|
300000000000000000000000300000000000000000000000,
|
|
300000000000000000000000300000000000000000300000,
|
|
#GOGOEND
|
|
000000000000000000000000000000000000000000000000,
|
|
100000001000100000001000000000000000500000000000,
|
|
000000000000000000000000000000000000000000000000,
|
|
000000000000000000008000000000000000300000000000,
|
|
|
|
|
|
#END
|
|
|
|
|
|
COURSE:Easy
|
|
LEVEL:4
|
|
SCOREINIT:570
|
|
SCOREDIFF:160
|
|
|
|
|
|
#START
|
|
|
|
|
|
#SCROLL 0.5
|
|
200000000000000000000000000000000000000000000000,
|
|
200000000000000000000000000000000000000000000000,
|
|
500000000000000000000000000000000000800000000000,
|
|
000000000000000000000000000000000000000000000000,
|
|
200000000000000000000000000000000000000000000000,
|
|
200000000000000000000000000000000000000000000000,
|
|
500000000000000000000000000000000000800000000000,
|
|
000000000000000000000000000000000000000000000000,
|
|
200000000000000000000000000000000000000000000000,
|
|
200000000000000000000000000000000000000000000000,
|
|
500000000000000000000000000000000000800000000000,
|
|
000000000000000000000000000000000000000000000000,
|
|
200000000000000000000000000000000000000000000000,
|
|
200000000000000000000000000000000000000000000000,
|
|
500000000000000000000000000000000000800000000000,
|
|
000000000000000000000000000000000000000000000000,
|
|
100000000000000000000000000000000000100000000000,
|
|
000000000000000000000000300000000000000000000000,
|
|
100000000000000000000000000000000000100000000000,
|
|
000000000000000000000000300000000000000000000000,
|
|
200000000000000000000000000000000000000000000000,
|
|
200000000000000000000000000000000000000000000000,
|
|
100000000000000000000000100000000000000000000000,
|
|
300000000000000000000000000000000000100000000000,
|
|
#GOGOSTART
|
|
100000000000000000000000000000000000000000000000,
|
|
100000000000000000000000100000000000000000000000,
|
|
100000000000000000000000100000000000000000000000,
|
|
100000000000000000000000000000000000500000000000,
|
|
000000000000800000000000000000000000000000000000,
|
|
100000000000000000000000100000000000000000000000,
|
|
100000000000000000000000100000000000000000000000,
|
|
100000000000000000000000000000000000100000000000,
|
|
100000000000000000000000000000000000000000000000,
|
|
100000000000000000000000100000000000000000000000,
|
|
100000000000000000000000100000000000000000000000,
|
|
100000000000000000000000000000000000500000000000,
|
|
000000000000800000000000000000000000000000000000,
|
|
100000000000000000000000100000000000000000000000,
|
|
100000000000000000000000100000000000000000000000,
|
|
100000000000000000000000000000000000000000000000,
|
|
100000000000000000000000000000000000000000000000,
|
|
100000000000000000000000100000000000000000000000,
|
|
100000000000000000000000100000000000000000000000,
|
|
100000000000000000000000000000000000000000000000,
|
|
500000000000000000000000000000000000000000000000,
|
|
800000000000000000000000000000000000000000000000,
|
|
300000000000000000000000300000000000000000000000,
|
|
300000000000000000000000300000000000000000300000,
|
|
#GOGOEND
|
|
000000000000000000000000000000000000000000000000,
|
|
200000000000000000000000000000000000000000000000,
|
|
100000000000000000000000000000000000000000000000,
|
|
100000000000000000000000100000000000000000000000,
|
|
100000000000000000000000000000000000000000000000,
|
|
100000000000000000000000100000000000000000000000,
|
|
100000000000000000000000100000000000000000000000,
|
|
100000000000000000000000000000000000000000000000,
|
|
100000000000000000000000000000000000000000000000,
|
|
200000000000000000000000000000000000000000000000,
|
|
100000000000000000000000000000000000000000000000,
|
|
200000000000000000000000200000000000000000000000,
|
|
100000000000000000000000000000000000000000000000,
|
|
200000000000000000000000200000000000000000000000,
|
|
100000000000000000000000200000000000000000000000,
|
|
200000000000000000000000000000000000000000000000,
|
|
100000000000000000000000100000000000000000000000,
|
|
300000000000000000000000300000000000000000000000,
|
|
100000000000000000000000100000000000000000000000,
|
|
200000000000000000000000200000000000000000000000,
|
|
100000000000000000000000200000000000000000000000,
|
|
100000000000000000000000000000000000000000000000,
|
|
100000000000000000000000100000000000000000000000,
|
|
200000000000000000000000200000000000000000000000,
|
|
100000000000000000000000000000000000000000000000,
|
|
100000000000000000000000000000000000000000000000,
|
|
100000000000000000000000100000000000000000000000,
|
|
200000000000000000000000000000000000000000000000,
|
|
100000000000100000000000100000000000000000000000,
|
|
100000000000000000000000000000000000000000000000,
|
|
100000000000000000100000000000000000100000000000,
|
|
000000000000000000000000100000000000000000000000,
|
|
100000000000000000100000000000000000100000000000,
|
|
000000000000000000000000100000000000000000000000,
|
|
500000000000000000000000000000000000000000000000,
|
|
000000000000800000000000000000000000000000000000,
|
|
300000000000000000000000300000000000000000000000,
|
|
300000000000000000000000000000000000100000000000,
|
|
#GOGOSTART
|
|
100000000000000000000000000000000000000000000000,
|
|
100000000000000000000000100000000000000000000000,
|
|
100000000000000000000000100000000000000000000000,
|
|
100000000000000000000000000000000000500000000000,
|
|
000000000000800000000000000000000000000000000000,
|
|
100000000000000000000000100000000000000000000000,
|
|
100000000000000000000000100000000000000000000000,
|
|
100000000000000000000000000000000000100000000000,
|
|
100000000000000000000000000000000000000000000000,
|
|
100000000000000000000000100000000000000000000000,
|
|
200000000000000000000000200000000000000000000000,
|
|
200000000000000000000000000000000000500000000000,
|
|
000000000000800000000000000000000000000000000000,
|
|
100000000000000000000000100000000000000000000000,
|
|
200000000000000000000000200000000000000000000000,
|
|
100000000000000000000000000000000000000000000000,
|
|
100000000000000000000000000000000000000000000000,
|
|
100000000000000000000000100000000000000000000000,
|
|
100000000000000000000000100000000000000000000000,
|
|
100000000000000000000000000000000000000000000000,
|
|
500000000000000000000000000000000000000000000000,
|
|
800000000000000000000000000000000000000000000000,
|
|
300000000000000000000000300000000000000000000000,
|
|
300000000000000000000000300000000000000000300000,
|
|
#GOGOEND
|
|
000000000000000000000000000000000000000000000000,
|
|
100000000000100000000000000000000000500000000000,
|
|
000000000000000000000000000000000000000000000000,
|
|
800000000000000000000000000000000000300000000000,
|
|
|
|
|
|
#END
|
|
|