02 Anime Sora no Parade (Fixed Track, Added NORMAL Chart) 07 Game Music Café de Party Night (Fixed Track and TITLE, Added NORMAL Chart) It’s Better to Create One Cute Girl Than to Create the World in 7 Days (Fixed Track and TITLE, Added NORMAL Chart) Kimi to Boku no Mirai (Added Oira Charts) Koku Gin no Tsubasa (Fixed Track and TITLE, Added HARD/NORMAL Chart) Koku Vyrn no Tsubasa (Fixed Title, MANIAC Track, Trimmed MANIAC Chart) Mahou no Note (Fixed Track and TITLE, Added NORMAL Chart) Never Ending Fantasy (Fixed Track, Added NORMAL Chart) Sanbagarasu Otoko Uta (Fixed Track, Added NORMAL Chart) Sora no Michishirube (Added Oira Charts) Souku Hana no Mai (Fixed Track, Added NORMAL Chart) The Dragon Knights (Fixed Track and TITLE, Added NORMAL Chart) The Ultimate (Fixed Track and BPM, Added HARD/NORMAL Chart) Yozora no Shizuku (Fixed Track and BPM, Added NORMAL Chart) Oira Ending (This is the playable credits for the Oira app with its own chart that does not have a fumenwiki article) 09 Namco Original Omochi de Mambo (Updated SUBTITLE[EN])
196 lines
2.5 KiB
Plaintext
196 lines
2.5 KiB
Plaintext
//TJADB Project
|
|
TITLE:Koku Vyrn no Tsubasa MANIAC
|
|
TITLEJA:黒ビィんの翼
|
|
SUBTITLE:--Tsutomu Narita feat. Rie Kugimiya/Granblue Fantasy
|
|
SUBTITLEJA:オイラ
|
|
BPM:212
|
|
WAVE:Koku Vyrn no Tsubasa MANIAC.ogg
|
|
OFFSET:-0.000
|
|
DEMOSTART:86.885
|
|
|
|
//SCOREINIT/SCOREDIFF is setup differently than conventional AC15(Gen3) scoring
|
|
//Normal note socres 160->350->550->940->1720(2070 in GGT) for a Good
|
|
|
|
COURSE:Edit
|
|
LEVEL:10
|
|
BALLOON:
|
|
SCOREINIT:164
|
|
SCOREDIFF:195.7
|
|
|
|
#START
|
|
0,
|
|
3000222220201020,
|
|
21221212,
|
|
3022223000222020,
|
|
11211233,
|
|
|
|
4040101110201010,
|
|
22122112,
|
|
41114111,
|
|
400100100100101020201010, //9
|
|
|
|
1010201010201011,
|
|
2010112010102010,
|
|
2011102011102011,
|
|
2010201020102011,
|
|
|
|
1010201010201011,
|
|
2010112010102010,
|
|
2011102011102010,
|
|
2010201020102011,
|
|
|
|
1010201011201011,
|
|
2010112010112010,
|
|
2011102011102011,
|
|
2010201020102011,
|
|
|
|
1010201011201011,
|
|
2010112010102010,
|
|
40140140,
|
|
14014010, //25
|
|
|
|
10211121,
|
|
11211121,
|
|
10211121,
|
|
11211122,
|
|
|
|
10211121,
|
|
11211121,
|
|
10211121,
|
|
4000104001102020,
|
|
|
|
11211211,
|
|
2010102010102011,
|
|
11211211,
|
|
2010102010102011,
|
|
|
|
21121121,
|
|
2011201120102010,
|
|
11221213,
|
|
00002222, //41
|
|
|
|
1011201020101020,
|
|
1011201011201010,
|
|
2011102011102011,
|
|
1020111020102010,
|
|
|
|
21212212,
|
|
11212212,
|
|
2010112010112011,
|
|
2010201020102011,
|
|
|
|
11212112,
|
|
1010202011201010,
|
|
2011101010101010,
|
|
2010101020111010,
|
|
|
|
33030033,
|
|
03004030,
|
|
33030033,
|
|
03003040,
|
|
|
|
33030033,
|
|
03004030,
|
|
33030033,
|
|
03000000, //61
|
|
|
|
22,
|
|
22,
|
|
22,
|
|
2021,
|
|
|
|
22,
|
|
22,
|
|
22,
|
|
21222111,
|
|
|
|
22,
|
|
2021,
|
|
22,
|
|
2021,
|
|
|
|
22,
|
|
2021,
|
|
33330434,
|
|
0001, //77
|
|
|
|
#GOGOSTART
|
|
2000101020112010,
|
|
2010201011102010,
|
|
21212122,
|
|
1011201020101120,
|
|
|
|
2000102010112010,
|
|
21212121,
|
|
2011201120112011,
|
|
1111202022112211,
|
|
|
|
1010201010112010,
|
|
1010201110102010,
|
|
1010201010112010,
|
|
1010202010112010,
|
|
|
|
21212212,
|
|
1011101020101010,
|
|
2011102011102011,
|
|
1020111022112211, //93
|
|
|
|
2000101020112010,
|
|
2010201011102010,
|
|
21212122,
|
|
1022112211221120,
|
|
|
|
2000102010112010,
|
|
2010202020101011,
|
|
21121121,
|
|
1020101020111111,
|
|
|
|
1010201010112010,
|
|
1010201110102010,
|
|
1010201010112010,
|
|
1010202010112010,
|
|
|
|
21212212,
|
|
1011101020202020,
|
|
3,
|
|
0, //109
|
|
|
|
22,
|
|
2021,
|
|
22,
|
|
2021,
|
|
|
|
22,
|
|
2021,
|
|
22,
|
|
2010001120202020,
|
|
|
|
11021021,
|
|
01012010,
|
|
11012012,
|
|
01011020,
|
|
|
|
11021021,
|
|
01012010,
|
|
11102012,
|
|
01011020, //125
|
|
|
|
11211211,
|
|
21112121,
|
|
11211211,
|
|
21112121,
|
|
|
|
11211211,
|
|
21112121,
|
|
11211211,
|
|
21112121,
|
|
|
|
1120101120101120,
|
|
1120222022201110,
|
|
1120101120101120,
|
|
2110221122112211,
|
|
|
|
2020112020112021,
|
|
100100200000200000200000202020101010202020200000,
|
|
33330434, //140
|
|
#END |