Files

490 lines
5.9 KiB
Plaintext

//TJADB Project
TITLE:L・O・B・M -New Chart-
TITLEJA:L・O・B・M
SUBTITLE:--Ryuichi Takada feat. Aikakiku/THE iDOLM@STER SP
SUBTITLEJA:新譜面 「アイドルマスター」より
BPM:170
WAVE:L O B M.ogg
OFFSET:-1.615
DEMOSTART:83.497
SCENEPRESET:IMAS
COURSE:Oni
LEVEL:8
BALLOON:
SCOREINIT:460,1450
SCOREDIFF:118
NOTESDESIGNER3:Kuboken
#START
1022102010201020,
1022102010201020,
1222102012221020,
1020202000112211, //4
#GOGOSTART
11211020,
1011101110102000,
11211020,
1011101110201020,
11211020,
1000202220222000,
11201120,
1022201022201122, //12
11211020,
1011101110102000,
11211020,
1011101110201020,
11211020,
1000202220222000,
11201120,
1011101110100030, //20
#GOGOEND
0,
0,
22,
4, //24
1022102010201000,
1022101210201000,
1022102010201000,
1022101210221020,
1022102010201000,
1022101210201000,
11221120,
12220440, //32
1022102010201000,
1022101210201000,
1022102010201000,
1022101210221020,
1022102010201000,
1022101210201000,
11221120,
11203030,
30430030,
0010201000222000, //42
1011100010111000,
1011101122111000,
1011200010112000,
1011201122112211,
1011100010111000,
1011101122111000,
1011200010112000,
1011201122112211, //50
1011100010111000,
1011101122111000,
1011200010112000,
1011201122112211,
1022201110222011,
1022201110222060,
000000000000000000000000000008000000000000400000,
0020202000112211, //58
#GOGOSTART
11211020,
1011101110102000,
11211020,
1011101110201020,
11211020,
1000202220222000,
11201120,
1022201022201122, //66
11211020,
1011101110102000,
11211020,
1011101110201020,
11211020,
1000202220222000,
11201120,
1011101110100030, //74
1111200011112000,
1111201111112000,
1111200011112000,
1111201111200020,
1111200011112000,
1111201111112000,
1111201111112011,
1120112011201120, //82
03,
0,
0,
#GOGOEND
0, //86
#END
COURSE:Hard
LEVEL:6
BALLOON:6,7,7,8,8
SCOREINIT:570,2250
SCOREDIFF:140
#START
0,
0,
1111,
1020202000222000, //4
#GOGOSTART
11201120,
1010202010111000,
11201120,
11221212,
11201120,
11202020,
11221122,
1011101010103000, //12
11201120,
1010202010111000,
11201120,
11221212,
11201120,
11202020,
11221122,
1011101010100030, //20
#GOGOEND
0,
0,
22,
4, //24
12101210,
12121010,
10250000,
000000000000000008000000000000000000000000000000,
12101210,
12121010,
10201121,
02220440, //32
12101210,
12121010,
10250000,
000000000000000008000000000000000000000000000000,
12101210,
12121010,
10201121,
0233,
30030030,
0010201000222000, //42
1011100010001000,
1011100010001000,
11201120,
11221022,
1011100010001000,
1011100010001000,
11201120,
11221220, //50
1011100010001000,
1011100010001000,
11201120,
11221022,
10110111,
01110116,
000000000000000000000000000008000000000000400000,
0, //58
#GOGOSTART
11201120,
1010202010111000,
11201120,
11221212,
11201120,
11202020,
11221122,
1011101010103000, //66
11201120,
1010202010111000,
11201120,
11221212,
11201120,
11202020,
11221122,
1011101010100030, //74
0600,
000000000000000000000000000000000008000000000000,
700000000000000000000000000000000000080000000000,
700000000000000000000000000000000000080000000000,
700000000000000000000000000000000000080000000000,
700000000000000000000000000000000000080000000000,
700000000000000000000000000000000000080000000000,
12221211, //82
03,
0,
0,
#GOGOEND
0, //86
#END
COURSE:Normal
LEVEL:4
BALLOON:6,6,6,6,13
SCOREINIT:850,4830
SCOREDIFF:275
#START
0,
0,
5,
000000000000000008000000000000000000000000000000, //4
#GOGOSTART
0202,
0111,
0202,
0111,
0202,
0111,
11,
3333, //12
0202,
0111,
0202,
0111,
0202,
0111,
11,
01111103, //20
#GOGOEND
0,
0,
22,
4, //24
1110,
1111,
10050000,
000000000000000008000000000000000000000000000000,
2220,
2222,
11,
1110, //32
1110,
1111,
10050000,
000000000000000008000000000000000000000000000000,
2220,
2222,
11,
1033,
30030030,
0, //42
500000000000000000000008000000000000200000000000,
1122,
500000000000000000000008000000000000200000000000,
1122,
500000000000000000000008000000000000200000000000,
1122,
500000000000000000000008000000000000200000000000,
1122, //50
500000000000000000000008000000000000200000000000,
1122,
500000000000000000000008000000000000200000000000,
1122,
1122,
30304046,
000000000000000000000000000008000000000000400000,
0, //58
#GOGOSTART
0202,
0111,
0202,
0111,
0202,
0111,
11,
3333, //66
0202,
0111,
0202,
0111,
0202,
0111,
11,
01111103, //74
0600,
000000000000000000000008000000000000000000000000,
700000000000000000000000000000000000080000000000,
700000000000000000000000000000000000080000000000,
700000000000000000000000000000000000080000000000,
700000000000000008000000,
9,
09008000, //82
03,
0,
0,
#GOGOEND
0, //86
#END
COURSE:Easy
LEVEL:3
BALLOON:4,4,4,4,13
SCOREINIT:570,5310
SCOREDIFF:168
#START
0,
0,
5,
000000000000000008000000000000000000000000000000, //4
#GOGOSTART
0101,
0111,
0101,
0111,
0101,
0111,
11,
3333, //12
0101,
0111,
0101,
0111,
0101,
0111,
11,
30303003, //20
#GOGOEND
0,
0,
22,
4, //24
1110,
1110,
10050000,
000000000000000008000000000000000000000000000000,
2220,
2220,
11,
1, //32
1110,
1110,
10050000,
000000000000000008000000000000000000000000000000,
2220,
2220,
11,
1033,
30030030,
0, //42
500000000000000000000008000000000000200000000000,
500000000000000000000008000000000000200000000000,
500000000000000000000008000000000000200000000000,
1002,
500000000000000000000008000000000000200000000000,
500000000000000000000008000000000000200000000000,
500000000000000000000008000000000000200000000000,
1022, //50
500000000000000000000008000000000000200000000000,
500000000000000000000008000000000000200000000000,
500000000000000000000008000000000000200000000000,
1002,
1122,
30304046,
000000000000000000000000000008000000000000400000,
0, //58
#GOGOSTART
0101,
0111,
0101,
0111,
0101,
0111,
11,
3333, //66
0101,
0111,
0101,
0111,
0101,
0111,
11,
30303003, //74
0600,
000000000000000000000000000000000008000000000000,
700000000000000000000000000000000000080000000000,
700000000000000000000000000000000000080000000000,
700000000000000000000000000000000000080000000000,
700000000000000008000000,
9,
09008000, //82
03,
0,
0,
#GOGOEND
0, //86
#END