Files
ESE/07 Game Music/Little Match Girl/Little Match Girl Yukiho and Chihaya and Makoto Version.tja

418 lines
5.4 KiB
Plaintext

//TJADB Project
TITLE:Little Match Girl -Yukiho & Chihaya & Makoto Version-
TITLEJA:Little Match Girl
SUBTITLE:--ESTi feat. Azumi Asakura/THE iDOLM@STER 2
SUBTITLEJA:別歌唱バージョン ‐ 雪歩・千早・真
BPM:135
WAVE:Little Match Girl Yukiho and Chihaya and Makoto Version.ogg
OFFSET:-1.954
DEMOSTART:73.062
SCENEPRESET:IMAS
COURSE:Oni
LEVEL:8
BALLOON:
SCOREINIT:530,1640
SCOREDIFF:135
#START
0,
0,
0,
0,
2022202000222020,
0022202000002020,
2022202000222030,
0004, //8
#GOGOSTART
1011201110112010,
0020102011202010,
1101201020112010,
0022101040004000,
1011201110112010,
0020102011202022,
1011201011202050,
000000000000000008000000100000100000100100100000, //16
#GOGOEND
1011201011012011,
1010201011012011,
1011201010222010,
0011201000222020,
0011201011012011,
1011201011012011,
1011201010222010,
0011201010101111, //24
1020112010201120,
1020112010112211,
1020112210110110,
2022022010112010,
2011201020112010,
2010221020112022,
1011201020112050,
000000000000000000000008000000200200200000100100, //32
1010221020112010,
2011201020221020,
1011201020112050,
000000000000000000000008000000000000100000200000,
1020112010201011,
2022112010201011,
2022101122101050,
000000000000000000000008000000000000000000000000, //40
#GOGOSTART
1011201110112011,
1011201022022011,
1011201110112011,
1012201022022011,
1021012010222011,
1021012010112211,
2011221120222000,
1000102112121011, //48
1011201110112011,
1011201022022011,
1011201110112011,
1011202022022011,
1021201210222011,
1021201210112211,
2011221120222000,
1011101012012010, //56
2211201012212210,
2211201012212210,
500000000000000000000008000000000000100000100000,
1000100022112211, //60
#GOGOEND
1010201022022011,
1022202022022000,
1010201010222010,
01212020,
1010201022022011,
1022202022022000,
1022102211211150,
000000000000000000000000000000000008000000000000, //68
3,
0,
0, //71
#END
COURSE:Hard
LEVEL:6
BALLOON:
SCOREINIT:780,3170
SCOREDIFF:230
#START
0,
0,
0,
0,
20220022,
00220002,
20220023,
0,
#GOGOSTART
10101021,
02200221,
1001001000101010,
01114040,
10111021,
02200220,
10101125,
000000000000000000000008000000000000000000000000,
#GOGOEND
0011101011010010,
0010101011010020,
02222201,
01110222,
0011101011010010,
0010101011010020,
02222201,
01110011,
10101121,
01101011,
1000101110010010,
2002002020000000,
01221221,
01210121,
01201225,
000000000000000000000008000000000000000000000000,
01221221,
01210121,
01201225,
000000000000000000000008000000000000100000000000,
10211221,
01200022,
1000100010222050,
000000000000000000000008000000000000000000000000,
#GOGOSTART
1011100010111000,
1011101000202000,
1011100010111000,
2022202000000011,
1001001010000011,
1001001010202050,
000000000000000000000000000000000000000008000000,
0,
1011100010111000,
1011101000202000,
1011100010111000,
2022202000000010,
10211021,
1000201010010010,
500000000000000000000000000000000000000008000000,
0000100010010010,
10211021,
1000201010010010,
500000000000000000000008000000000000100000100000,
1111,
#GOGOEND
3002,
0002,
00200022,
02202020,
10101011,
00200220,
10101225,
000000000000000000000000000000000008000000000000,
3,
0,
0,
#END
COURSE:Normal
LEVEL:5
BALLOON:6,6,6
SCOREINIT:940,5010
SCOREDIFF:325
#START
0,
0,
0,
0,
0202,
0202,
00200023,
0,
#GOGOSTART
10101011,
0202,
10110001,
01104040,
10101011,
0202,
10101115,
000000000000000000000008000000000000000000000000,
#GOGOEND
10101001,
01101002,
02202007,
08,
10101001,
01101002,
02202005,
000000000000000000000008000000000000000000000000,
10101110,
1110,
10102220,
2220,
10101117,
00008003,
00101115,
000000000000000000000008000000000000000000000000,
10101110,
20202220,
10101115,
000000000000000000000008000000000000100000000000,
10101117,
0082,
20202205,
000000000000000000000008000000000000000000000000,
#GOGOSTART
1111,
10110000,
2222,
20220000,
10011000,
10011225,
000000000000000000000000000000000000000008000000,
0,
1111,
10110000,
2222,
20220000,
10011000,
1000001010020020,
500000000000000000000000000000000000000008000000,
00101001,
10011001,
10011001,
500000000000000000000008000000000000100000100000,
1111,
#GOGOEND
3002,
0002,
0202,
0222,
10101011,
0101,
00200025,
000000000000000000000000000000000008000000000000,
3,
0,
0,
#END
COURSE:Easy
LEVEL:3
BALLOON:5,5,5
SCOREINIT:740,6920
SCOREDIFF:295
#START
0,
0,
0,
0,
0200,
0200,
00200003,
0,
#GOGOSTART
0101,
0101,
0202,
0244,
0101,
0101,
00200025,
000000000000000000000008000000000000000000000000,
#GOGOEND
0110,
1110,
20002007,
08,
0110,
1110,
20002005,
000000000000000000000008000000000000000000000000,
1011,
0101,
1022,
22,
10101017,
00008003,
00101015,
000000000000000000000008000000000000000000000000,
0111,
0222,
0111,
0201,
10101017,
0082,
20202025,
000000000000000000000008000000000000000000000000,
#GOGOSTART
1111,
1100,
2222,
2200,
1120,
10102025,
000000000000000000000000000000000000000008000000,
0,
1111,
1100,
2222,
2200,
1120,
10102025,
000000000000000000000000000000000000000008000000,
0,
1120,
10102005,
000000000000000000000008000000000000000000000000,
1111,
#GOGOEND
3002,
0002,
0202,
0222,
0101,
0101,
00100015,
000000000000000000000000000000000008000000000000,
3,
0,
0,
#END