Files
2023-01-17 00:45:18 -05:00

466 lines
6.9 KiB
Plaintext

//TJADB Project
TITLE:MAGICAL SOUND SHOWER
TITLEJA:MAGICAL SOUND SHOWER
SUBTITLE:--Hiroshi Kawaguchi/Outrun
SUBTITLEJA:「アウトラン」より
BPM:125
WAVE:MAGICAL SOUND SHOWER.ogg
OFFSET:-2.045
DEMOSTART:44.275
COURSE:Oni
LEVEL:9
BALLOON:38
SCOREINIT:480
SCOREDIFF:120
NOTESDESIGNER3:Kijikiji
#START
,
1021010102101000,
1021020102101022,
1021010102101000,
1021020112120222,
1021010102101000,
1021020111211210,
1021010102101122,
1021020100000000,
1021010102101122,
1021020102021120,
1021010102101122,
100000200100000200000100202020200000101010100200,
1021010102101122,
1021020102022020,
500000000000000000000000000000000000000008000000,
7,
0000000000000800,
1002002000102000,
1002002000102022,
1002002000102000,
3004004000304000,
1021021010212210,
1021012002022220,
1021021010212210,
1002102202022220,
1021021010212210,
1021012002022220,
1021021010212210,
100100100000000000100100100000001010200000000000,
1021012210201120,
1202102202021120,
1021012210201120,
100000000500000000000000000000000000008000000000,
1021012210201120,
1202102202021120,
1021012210201120,
100000000200000000200000202020200200200200200000,
2002002000202000,
2002002000202000,
0101010201020202,
0101020101020400,
,
1202001202002022,
1202001202022011,
1202001202002022,
1202001202000400,
2202202222202020,
1111102210101111,
#GOGOSTART
#SECTION
#BRANCHSTART p,90,90
#N
2010120102011000,
1012012011012000,
1010120102011000,
1012012002020220,
1012011201010220,
2220222022222010,
1102011012101210,
100100200000200000000000100010001000100010001000,
2001200102102000,
1001200102102022,
1001200102222021,
0112022101120221,
2022101120221011,
500000000000000000000000000000000000000008000000,
1122102022202220,
100100200000100200100200100010001000100010001000,
#GOGOEND
0101010201020202,
0101020101020400,
,
0303000303002022,
0303000303022011,
0303000303002022,
0303000303000400,
0202202222202020,
1111102210101111,
2002002000102000,
1002002000102000,
3004004000304000,
1111111110304000,
#E
,
,
,
,
,
,
,
,
,
,
,
,
,
,
,
,
,
,
,
,
,
,
,
,
,
,
,
,
,
#M
2010120102011212,
1012012112012000,
1010120102011122,
1012012002020222,
1012011221010220,
200200202020200200202020200200200200200000100200,
1102011212101210,
100100200000202020202020200010001000100010001000,
1001200102102000,
1001200102102022,
1001200102112021,
0112022101120221,
202020200200101010100100202020200200101010100100,
500000000000000000000000000000000000000008000000,
100100200200100100200000200200202020200200200200,
100100200200100200100200100200200200100010001000,
#GOGOEND
0101010201020202,
0101020101020400,
,
0303000303002022,
0303000303022011,
0303000303002022,
0303000303000400,
0202202222202020,
1212202210101111,
2002002000102000,
1002002000102000,
3004004000304000,
1121121120304000,
#BRANCHEND
#END
COURSE:Hard
LEVEL:7
BALLOON:30,4,4,13
SCOREINIT:600
SCOREDIFF:150
#START
,
1011010101101000,
1011020100000000,
1011010101101000,
1011010100000000,
1011010101101000,
1011020100000000,
2011010101101000,
1011010100000000,
2011010101101000,
1011020100000000,
1011010101101000,
1011010100000000,
1011010101101000,
1011020102022020,
500000000000000000000000000000000000000008000000,
7,
0008,
1002002000102000,
1002002000102000,
1002002000102000,
3004004000304000,
1001002010010010,
1001002000000000,
1001002010010010,
1002200000000000,
1001002010010010,
1001002000000000,
1001002010010010,
1110001110000000,
1000010110001020,
1001100000000000,
1000010110001020,
100000000500000000000000000000000000008000000000,
1000010110001020,
1001100000000000,
1000010110001020,
100000000500000000000000000000000000008000000000,
2002002000202000,
2002002000202000,
0101010101010102,
0202020202020400,
,
0101000101000000,
0202000202000000,
0101000101000000,
0202000202000400,
,
1111101110101000,
#GOGOSTART
1010110101011000,
1002001001011000,
7878,
1002001001010110,
1011010101010110,
2220222022202000,
1101010101101000,
100100100000200000000000100010001000100010001000,
2000200101102000,
1000200101102011,
1000200101102011,
0111011101110110,
2022202220222022,
500000000000000000000000000000000008000000000000,
2222200022222000,
200200200000200200200000200200200000100010001000,
0101010101010102,
0202020202020400,
,
0101000101000000,
0202000202000000,
0303000303000000,
0404000404000700,
0008,
1111101110101000,
1002002000102000,
1002002000102000,
1002002000102000,
3004004000304000,
#END
COURSE:Normal
LEVEL:6
BALLOON:20,14,20
SCOREINIT:830
SCOREDIFF:248
#START
,
1000010100000000,
1000010100000000,
1000010100000000,
1000010100000000,
1000010100000000,
1000010100000000,
2000010100000000,
1000010100000000,
2000010100000000,
1000010100000000,
1011010100000000,
1011010100000000,
1011010100000000,
1011010100000000,
500000000000000000000000000000000008000000000000,
7,
0008,
1001001000101000,
1001001000101000,
1001001000101000,
3003003000303000,
1212,
1001001000000000,
1212,
1200,
1212,
1001001000000000,
1212,
33,
12,
1200,
12,
500000000000000000000000000000000008000000000000,
12,
1200,
12,
500000000000000000000000000000000008000000000000,
2002002000202000,
2002002000202000,
0700000000000000,
0000000008000400,
,
0101000101000000,
0202000202000000,
0101000101000000,
0202000202000400,
,
,
#GOGOSTART
12001200,
1001001000000000,
33,
1001001000000000,
12001200,
22002200,
12001200,
500000000000000000000000000000000008000000000000,
1000000100101000,
2000000200202000,
1000000100101000,
2222,
22202220,
500000000000000000000000000000000008000000000000,
2222,
500000000000000000000000000000000008000000000000,
#GOGOEND
0900000000000000,
0000009000000800,
,
0101000101000000,
0202000202000000,
0303000303000000,
0404000404000400,
,
,
1001001000101000,
1001001000101000,
1001001000101000,
3003003000303000,
#END
COURSE:Easy
LEVEL:4
BALLOON:14,11,14
SCOREINIT:810
SCOREDIFF:365
#START
,
1001,
1,
1001,
1,
3001,
3,
4001,
3,
4001,
3,
3001,
500000000000000000000000000008000000000000000000,
3001,
3,
9,
00000080,
,
00000110,
00000110,
00000110,
00000330,
11,
1202,
11,
1200,
11,
1202,
11,
33,
12,
1,
12,
500000000000000000000000000008000000000000000000,
12,
1,
12,
500000000000000000000000000008000000000000000000,
00000220,
00000220,
0700000000000000,
0000000008000400,
,
0000000101000000,
0000000202000000,
0000000101000000,
0000000202000400,
,
,
#GOGOSTART
11,
1210,
11,
1210,
11,
1111,
11,
500000000000000000000000000008000000000000000000,
1100,
2200,
1100,
22,
2222,
500000000000000000000000000008000000000000000000,
44,
500000000000000000000000000000000008000000000000,
#GOGOEND
0900000000000000,
0000009000000800,
,
0000000101000000,
0000000202000000,
0000000101000000,
0000000202000400,
,
,
40000110,
00000110,
00000110,
00000330,
#END