Files

535 lines
5.5 KiB
Plaintext

//TJADB Project
TITLE:MANKAI☆Kaika Sengen
TITLEJA:MANKAI☆開花宣言
SUBTITLE:--A3ders!/A3!
SUBTITLEJA:「A3!」主題歌
BPM:172.04
WAVE:MANKAI Kaika Sengen.ogg
OFFSET:-1.548
DEMOSTART:47.499
SCENEPRESET:A3
//shinuchi: 6960/4900/3370/2360
COURSE:Oni
LEVEL:5
BALLOON:16
SCOREINIT:660,2770
SCOREDIFF:195
#START
30230203,
02230222,
30303303,
03034040,
#GOGOSTART
1000201110202010,
0010201110202000,
30303303,
#GOGOEND
0000000020222220, //8
1000200022202010,
0022201000102000,
1000201011102010,
0010200011102000,
1000201011102010,
0010200011102000,
#BPMCHANGE 171.42
10111111,
#BPMCHANGE 173.12
#SCROLL 0.99
0022202020002000, //16
#BPMCHANGE 170.89
#SCROLL 1
1000200022202010,
#BPMCHANGE 172
0022201000102000,
1000201011102010,
0010200011102000,
1000202220002000,
1000202220002020,
11220112,
000000200000500000000000000000000000000000000008,
0, //25
1110202020002030,
02210222,
1110202020002030,
0020201000111030,
0022202000111030,
0022202010002010,
04040404,
00000120, //33
#GOGOSTART
10112021,
10112020,
10112021,
10112020,
12112010,
#BPMCHANGE 172.78
#SCROLL 0.99
12122020,
#BPMCHANGE 172
#SCROLL 1
12112010,
#BPMCHANGE 171.02
1000111020001110, //41
#BPMCHANGE 172.22
#SCROLL 0.99
2000200011102000,
#BPMCHANGE 172
#SCROLL 1
2000200011102000,
2000200011102000,
#BPMCHANGE 172.85
#SCROLL 0.99
20221020,
#BPMCHANGE 172
#SCROLL 1
2000201011102000,
2000201011102000,
#BPMCHANGE 171.81
7,
#BPMCHANGE 171.35
08, //49
#GOGOEND
#BPMCHANGE 172
1110202000202010,
0020201000222020,
30303303,
03033000,
#BPMCHANGE 174.1
#SCROLL 0.98
1110202000202010,
#BPMCHANGE 169.95
#SCROLL 1.01
0020201000222020,
#BPMCHANGE 172.77
#SCROLL 0.99
30303303,
03033000,
#BPMCHANGE 171.49
#SCROLL 1
30303303,
03034040, //59
#GOGOSTART
1000201110202010,
#BPMCHANGE 172.89
#SCROLL 0.99
0010201110202000,
#BPMCHANGE 171.11
#SCROLL 1
30303303,
#BPMCHANGE 170.05
#SCROLL 1.01
03033000,
#GOGOEND
0,
0, //65
#END
COURSE:Hard
LEVEL:4
BALLOON:8,15,12
SCOREINIT:760,4350
SCOREDIFF:238
#START
30030003,
00030222,
30303303,
03034040,
#GOGOSTART
10222011,
01011220,
30303303,
#GOGOEND
0, //8
10201022,
01110020,
10021000,
0022,
10220101,
00001001,
#BPMCHANGE 171.42
70000008,
#BPMCHANGE 173.12
#SCROLL 0.99
0, //16
#BPMCHANGE 170.89
#SCROLL 1
10201022,
#BPMCHANGE 172
01110020,
10220101,
0011,
10022000,
10022000,
9,
09,
8, //25
11111003,
02220000,
11111003,
02220113,
02220113,
02223022,
04040404,
0, //33
#GOGOSTART
12,
12,
1022,
1120,
1022,
#BPMCHANGE 172.78
#SCROLL 0.99
1122,
#BPMCHANGE 172
#SCROLL 1
5,
#BPMCHANGE 171.02
000000000000000000000008000000000000000000000000, //41
#BPMCHANGE 172.22
#SCROLL 0.99
10201120,
#BPMCHANGE 172
#SCROLL 1
10201120,
10201120,
#BPMCHANGE 172.85
#SCROLL 0.99
10221020,
#BPMCHANGE 172
#SCROLL 1
10201120,
10201120,
#BPMCHANGE 171.81
7,
#BPMCHANGE 171.35
08, //49
#GOGOEND
#BPMCHANGE 172
11110222,
02220222,
30303303,
03033000,
#BPMCHANGE 174.1
#SCROLL 0.98
11110222,
#BPMCHANGE 169.95
#SCROLL 1.01
02220222,
#BPMCHANGE 172.77
#SCROLL 0.99
30303303,
03033000,
#BPMCHANGE 171.49
#SCROLL 1
30303303,
03034040, //59
#GOGOSTART
10222011,
#BPMCHANGE 172.89
#SCROLL 0.99
01011220,
#BPMCHANGE 171.11
#SCROLL 1
30303303,
#BPMCHANGE 170.05
#SCROLL 1.01
03033000,
#GOGOEND
0,
0, //65
#END
COURSE:Normal
LEVEL:4
BALLOON:10,14,11
SCOREINIT:870,6950
SCOREDIFF:335
#START
30030003,
00030000,
30303303,
03033030,
#GOGOSTART
10011001,
01011000,
30303303,
#GOGOEND
0, //8
12,
02,
12,
0011,
12,
02,
#BPMCHANGE 171.42
7,
#BPMCHANGE 173.12
#SCROLL 0.99
08, //16
#BPMCHANGE 170.89
#SCROLL 1
12,
#BPMCHANGE 172
02,
12,
0011,
10011000,
10011000,
9,
09,
8, //25
11101003,
0,
11101003,
00000113,
00000113,
00000006,
000000000000000000000000000000000000000008000000,
0, //33
#GOGOSTART
11,
22,
1022,
12,
1022,
#BPMCHANGE 172.78
#SCROLL 0.99
1122,
#BPMCHANGE 172
#SCROLL 1
5,
#BPMCHANGE 171.02
000000000000000000000008000000000000000000000000, //41
#BPMCHANGE 172.22
#SCROLL 0.99
12,
#BPMCHANGE 172
#SCROLL 1
12,
1022,
#BPMCHANGE 172.85
#SCROLL 0.99
1120,
#BPMCHANGE 172
#SCROLL 1
1022,
12,
#BPMCHANGE 171.81
7,
#BPMCHANGE 171.35
08, //49
#GOGOEND
#BPMCHANGE 172
11,
11,
30303303,
03033000,
#BPMCHANGE 174.1
#SCROLL 0.98
11,
#BPMCHANGE 169.95
#SCROLL 1.01
11,
#BPMCHANGE 172.77
#SCROLL 0.99
30303303,
03033000,
#BPMCHANGE 171.49
#SCROLL 1
30303303,
03033030, //59
#GOGOSTART
10011001,
#BPMCHANGE 172.89
#SCROLL 0.99
01011000,
#BPMCHANGE 171.11
#SCROLL 1
30303303,
#BPMCHANGE 170.05
#SCROLL 1.01
03033000,
#GOGOEND
0,
0, //65
#END
COURSE:Easy
LEVEL:2
BALLOON:9,12,10
SCOREINIT:720,9750
SCOREDIFF:400
#START
30030003,
00030000,
30303003,
0033,
#GOGOSTART
11,
11,
30303003,
#GOGOEND
0, //8
1,
02,
1,
0011,
1,
01,
#BPMCHANGE 171.42
7,
#BPMCHANGE 173.12
#SCROLL 0.99
08, //16
#BPMCHANGE 170.89
#SCROLL 1
1,
#BPMCHANGE 172
02,
1,
0011,
11,
11,
9,
09,
8, //25
10101003,
0,
10101003,
00000003,
00000003,
00000006,
000000000000000000000000000000000000000008000000,
0, //33
#GOGOSTART
11,
11,
1011,
12,
1011,
#BPMCHANGE 172.78
#SCROLL 0.99
12,
#BPMCHANGE 172
#SCROLL 1
5,
#BPMCHANGE 171.02
000000000000000000000008000000000000000000000000, //41
#BPMCHANGE 172.22
#SCROLL 0.99
12,
#BPMCHANGE 172
#SCROLL 1
12,
1011,
#BPMCHANGE 172.85
#SCROLL 0.99
12,
#BPMCHANGE 172
#SCROLL 1
12,
12,
#BPMCHANGE 171.81
7,
#BPMCHANGE 171.35
08, //49
#GOGOEND
#BPMCHANGE 172
11,
11,
30303003,
03,
#BPMCHANGE 174.1
#SCROLL 0.98
11,
#BPMCHANGE 169.95
#SCROLL 1.01
11,
#BPMCHANGE 172.77
#SCROLL 0.99
30303003,
03,
#BPMCHANGE 171.49
#SCROLL 1
30303003,
0033, //59
#GOGOSTART
11,
#BPMCHANGE 172.89
#SCROLL 0.99
11,
#BPMCHANGE 171.11
#SCROLL 1
30303006,
#BPMCHANGE 170.05
#SCROLL 1.01
000000000000000000000008000000000000000000000000,
#GOGOEND
0,
0, //65
#END