Files
2023-06-15 19:15:39 -05:00

371 lines
4.2 KiB
Plaintext
Raw Permalink Blame History

This file contains ambiguous Unicode characters
This file contains Unicode characters that might be confused with other characters. If you think that this is intentional, you can safely ignore this warning. Use the Escape button to reveal them.
//TJADB Project
TITLE:MachineGun Kiss
TITLEJA:MachineGun Kiss
SUBTITLE:--Yuri Fukuda feat. Takaya Kuroda/Yakuza: Dead Souls
BPM:178
WAVE:MachineGun Kiss.ogg
OFFSET:-1.478
DEMOSTART:63.494
COURSE:Oni
LEVEL:6
SCOREINIT:660
SCOREDIFF:170
#START
10210120,
11210120,
10210120,
11210120,
10210120,
12221020,
12012012,
000000100000500000000000000000000000000008000000,
34043036,
000000000000000000000000000008000000000000000000,
10211121,
01201120,
10211121,
01201120,
10211121,
01201120,
10201021,
01202121,
0010201110102010,
0010200010102011,
1010201110102010,
0010200010102011,
1010201110102010,
0010200010102011,
1010201110102010,
01201211,
10012020,
10012020,
10012021,
01212120,
10012020,
10012020,
10012021,
0111,
10012020,
10012020,
10012021,
01212120,
10012020,
10012020,
10012021,
0000100010201110,
10211211,
01212121,
20120220,
2010102010101110,
#GOGOSTART
10210121,
10210121,
10210121,
10210122,
10210121,
10210121,
10210122,
43343340,
1000201000102011,
1010201000102011,
1000201000102011,
1010201000102011,
1000201000102011,
12021121,
1000201000102011,
1000201000102011,
11210121,
0334,
30040030,
4011,
5,
000000000008000000000000000000000000100000000000,
10050000,
000000000000000000000008000000000000100000000000,
5,
000000000008000000000000000000000000300000300000,
#GOGOEND
#END
COURSE:Hard
LEVEL:3
SCOREINIT:700
SCOREDIFF:160
#START
10210120,
11201120,
10210120,
11201120,
10210121,
02201020,
11022011,
000000200000500000000000000000000000000008000000,
11022015,
000000000000000000000000000008000000000000000000,
10201021,
01201020,
10201021,
01201120,
10201021,
01201020,
10201021,
,
10201021,
01201020,
10201021,
01201121,
01201021,
01201020,
10201021,
01201000,
10010020,
1000001110002000,
10010020,
0111,
100010020,
1000001110002000,
10001001,
0111,
10010020,
1000001110002000,
11,
0111,
1000001020000011,
10012002,
10001011,
,
10201211,
00201210,
11,
500000000000000000000000000000000008000000000000,
#GOGOSTART
30210121,
10210120,
10210121,
11201120,
10210120,
10210121,
10210120,
30030000,
10210120,
11201020,
10210120,
11201020,
500000000000000000000000000000000000000008000000,
01021120,
10210121,
10210120,
10210120,
0333,
30030010,
10001010,
5,
000000000000000000000008000000000000300000000000,
30030000,
0001,
10050000,
000000000000000000000008000000000000000000000000,
#GOGOEND
#END
COURSE:Normal
LEVEL:4
BALLOON:6,12
SCOREINIT:900
SCOREDIFF:240
#START
10010020,
10010000,
10010020,
10010000,
10010020,
01101000,
10010010,
01100000,
10010050,
000000000000000000000000000000000008000000000000,
1202,
1212,
1202,
1212,
1202,
1212,
10001011,
,
1202,
1212,
1202,
1212,
1202,
1212,
10011000,
,
12,
10022000,
12,
0111,
10022000,
12,
10001001,
,
10022000,
12,
11,
0111,
12,
12,
10001011,
,
10101100,
10101100,
11,
70000800,
#GOGOSTART
10010020,
1212,
10010020,
1212,
10010020,
1212,
10110000,
30030000,
10010020,
1212,
10010020,
1212,
10010020,
1212,
500000000000000000000000000000000000000000000008,
,
,
0333,
30030010,
1011,
5,
000000000000000008000000000000000000000000000000,
5,
000000000000000008000000000000000000000000000000,
7,
000000000000000000000000000000000000000000000008,
#GOGOEND
#END
COURSE:Easy
LEVEL:4
BALLOON:4,10
SCOREINIT:890
SCOREDIFF:270
#START
10010000,
10010000,
10010000,
10010000,
10010000,
0110,
10010010,
,
10010050,
000000000000000000000000000000000000000008000000,
0101,
0101,
1001,
0101,
1001,
0101,
11,
1,
0101,
0101,
1001,
0101,
1001,
0101,
11,
,
12,
12,
11,
0011,
12,
12,
11,
0011,
12,
12,
11,
0011,
12,
12,
11,
1,
1,
0111,
11,
70000800,
#GOGOSTART
10010000,
1,
10010000,
1,
10010000,
10010000,
10010000,
30030000,
10010000,
1,
10010000,
10010000,
1,
1011,
500000000000000000000000000000000000000000000008,
,
,
0333,
30030000,
0011,
5,
000000000000000008000000000000000000000000000000,
5,
000000000000000008000000000000000000000000000000,
7,
000000000000000000000000000000000000000000000008,
#GOGOEND
#END