02 Anime Sora no Parade (Fixed Track, Added NORMAL Chart) 07 Game Music Café de Party Night (Fixed Track and TITLE, Added NORMAL Chart) It’s Better to Create One Cute Girl Than to Create the World in 7 Days (Fixed Track and TITLE, Added NORMAL Chart) Kimi to Boku no Mirai (Added Oira Charts) Koku Gin no Tsubasa (Fixed Track and TITLE, Added HARD/NORMAL Chart) Koku Vyrn no Tsubasa (Fixed Title, MANIAC Track, Trimmed MANIAC Chart) Mahou no Note (Fixed Track and TITLE, Added NORMAL Chart) Never Ending Fantasy (Fixed Track, Added NORMAL Chart) Sanbagarasu Otoko Uta (Fixed Track, Added NORMAL Chart) Sora no Michishirube (Added Oira Charts) Souku Hana no Mai (Fixed Track, Added NORMAL Chart) The Dragon Knights (Fixed Track and TITLE, Added NORMAL Chart) The Ultimate (Fixed Track and BPM, Added HARD/NORMAL Chart) Yozora no Shizuku (Fixed Track and BPM, Added NORMAL Chart) Oira Ending (This is the playable credits for the Oira app with its own chart that does not have a fumenwiki article) 09 Namco Original Omochi de Mambo (Updated SUBTITLE[EN])
188 lines
1.5 KiB
Plaintext
188 lines
1.5 KiB
Plaintext
//TJADB Project
|
|
TITLE:Mahou no Note
|
|
TITLEJA:マホウのノート
|
|
SUBTITLE:--Johnny.k feat. Nao Toyama/Granblue Fantasy
|
|
SUBTITLEJA:オイラ
|
|
BPM:170
|
|
WAVE:Mahou no Note.ogg
|
|
OFFSET:-0.108
|
|
DEMOSTART:50.373
|
|
|
|
COURSE:Hard
|
|
LEVEL:6
|
|
BALLOON:6,28
|
|
SCOREINIT:880
|
|
SCOREDIFF:220
|
|
|
|
#START
|
|
0,
|
|
0,
|
|
30000003,
|
|
00220101,
|
|
30000023,
|
|
02021030,
|
|
|
|
1111,
|
|
10140121,
|
|
01111114,
|
|
0000500000080000, //10
|
|
|
|
2111,
|
|
1111,
|
|
1111,
|
|
1111,
|
|
|
|
2111,
|
|
10102222,
|
|
1111,
|
|
1400, //18
|
|
|
|
10201120,
|
|
10210020,
|
|
10201120,
|
|
10201120,
|
|
|
|
10201120,
|
|
22220010,
|
|
10201123,
|
|
0011, //26
|
|
|
|
30201120,
|
|
11210120,
|
|
10201122,
|
|
01030300,
|
|
|
|
1121,
|
|
11012000,
|
|
1121,
|
|
1121,
|
|
70000804,
|
|
03333000, //36
|
|
|
|
#GOGOSTART
|
|
3333,
|
|
50080000,
|
|
3343,
|
|
50080000,
|
|
|
|
10201120,
|
|
10210120,
|
|
10201122,
|
|
01220000, //44
|
|
|
|
3333,
|
|
50080000,
|
|
3343,
|
|
50080000,
|
|
|
|
10201120,
|
|
10210120,
|
|
10201120,
|
|
6008, //52
|
|
|
|
12,
|
|
1111,
|
|
7,
|
|
0,
|
|
|
|
00000008,
|
|
0,
|
|
1111,
|
|
10140121, //60
|
|
|
|
01111114,
|
|
00600008,
|
|
0,
|
|
0,
|
|
03304403, //65
|
|
#END
|
|
|
|
|
|
COURSE:Normal
|
|
LEVEL:2
|
|
BALLOON:
|
|
SCOREINIT:2200
|
|
SCOREDIFF:550
|
|
|
|
#START
|
|
0,
|
|
0,
|
|
10000001,
|
|
0,
|
|
10000001,
|
|
0,
|
|
|
|
12,
|
|
1,
|
|
11,
|
|
0200, //10
|
|
|
|
2,
|
|
2,
|
|
2,
|
|
2,
|
|
|
|
2,
|
|
2,
|
|
2,
|
|
0200, //18
|
|
|
|
11,
|
|
1,
|
|
11,
|
|
1,
|
|
|
|
1,
|
|
10010000,
|
|
1,
|
|
1, //26
|
|
|
|
1,
|
|
2,
|
|
1,
|
|
10020000,
|
|
|
|
12,
|
|
1,
|
|
12,
|
|
12,
|
|
10000011,
|
|
0, //36
|
|
|
|
#GOGOSTART
|
|
11,
|
|
2,
|
|
11,
|
|
2,
|
|
|
|
10000001,
|
|
00020000,
|
|
10000001,
|
|
00020000, //44
|
|
|
|
11,
|
|
2,
|
|
11,
|
|
2,
|
|
|
|
10000001,
|
|
00020000,
|
|
12,
|
|
1, //52
|
|
|
|
11,
|
|
1,
|
|
5,
|
|
0,
|
|
|
|
8,
|
|
0,
|
|
12,
|
|
1, //60
|
|
|
|
11,
|
|
0200,
|
|
0,
|
|
0,
|
|
01002001, //65
|
|
#END |