567 lines
7.2 KiB
Plaintext
567 lines
7.2 KiB
Plaintext
//TJADB Project
|
||
TITLE:Mahou o Kakete! -Akizuki Ritsuko Version-
|
||
TITLEJA:魔法をかけて!
|
||
TITLEZH:魔法をかけて!
|
||
SUBTITLE:--Satoru Kousaki feat. Naomi Wakabayashi/THE iDOLM@STER
|
||
SUBTITLEJA:別歌唱バージョン ‐ 律子
|
||
BPM:150
|
||
WAVE:Mahou o Kakete Akizuki Ritsuko Version.ogg
|
||
OFFSET:-1.918
|
||
DEMOSTART:53.107
|
||
SCENEPRESET:IMAS
|
||
|
||
|
||
COURSE:Edit
|
||
LEVEL:6
|
||
BALLOON:4,4
|
||
SCOREINIT:510,1830
|
||
SCOREDIFF:138
|
||
|
||
#START
|
||
#GOGOSTART
|
||
1000200011102010,
|
||
0010001000102220,
|
||
1000200011102010,
|
||
11211121,
|
||
|
||
1000200011102010,
|
||
0010001000102220,
|
||
1000200011102010,
|
||
11211121, //8
|
||
#GOGOEND
|
||
|
||
1111,
|
||
12121212,
|
||
1111,
|
||
12021222,
|
||
|
||
1111,
|
||
12121212,
|
||
1000200011102000,
|
||
1010201000222000, //16
|
||
|
||
1111,
|
||
12121212,
|
||
1111,
|
||
12021222,
|
||
|
||
1111,
|
||
12121212,
|
||
1000200011102010,
|
||
1010201000222000, //24
|
||
|
||
10012010,
|
||
10012010,
|
||
10012010,
|
||
1000201000112000,
|
||
|
||
1010202010102220,
|
||
1010202010102220,
|
||
12120112,
|
||
1111, //32
|
||
|
||
#GOGOSTART
|
||
1020111010102010,
|
||
1020111010102010,
|
||
3000300022201020,
|
||
1000100022201020,
|
||
|
||
1000200011102020,
|
||
1000200011102020,
|
||
10201121,
|
||
1020201022202220, //40
|
||
|
||
1020111010102010,
|
||
1020111010102010,
|
||
3000300022201020,
|
||
1000100022201020,
|
||
|
||
1000200011102020,
|
||
1000200011102020,
|
||
10201121,
|
||
1000001022202220, //48
|
||
#GOGOEND
|
||
|
||
3030400011102010,
|
||
0010001000102220,
|
||
1000200011102010,
|
||
1000200011102010,
|
||
|
||
1022102010221020,
|
||
11221122,
|
||
1120221011112222,
|
||
2, //56
|
||
|
||
#GOGOSTART
|
||
1020112011102010,
|
||
1020112011102020,
|
||
3000300022201020,
|
||
1000100022201020,
|
||
|
||
700000000000080000000000100100100000200000100000,
|
||
1000200011102010,
|
||
10201121,
|
||
1020201022201110, //64
|
||
|
||
1020112011102010,
|
||
1020112011102020,
|
||
3000300022201020,
|
||
1000100022201020,
|
||
|
||
700000000000080000000000100100100000200000100000,
|
||
1000200011102010,
|
||
10201121,
|
||
1000001022202220,//72
|
||
#GOGOEND
|
||
|
||
3030400011102010,
|
||
0010001000102220,
|
||
0010222010202030,
|
||
0,
|
||
0, //77
|
||
#END
|
||
|
||
|
||
COURSE:Oni
|
||
LEVEL:7
|
||
BALLOON:4,4,4,4,4,4
|
||
SCOREINIT:610,1920
|
||
SCOREDIFF:155
|
||
|
||
#START
|
||
#GOGOSTART
|
||
0303,
|
||
0303,
|
||
0303,
|
||
0303,
|
||
|
||
0303,
|
||
0303,
|
||
0000300000003022,
|
||
2022022020202220, //8
|
||
#GOGOEND
|
||
|
||
1111,
|
||
1010201020222020,
|
||
1111,
|
||
1010201020222020,
|
||
|
||
1111,
|
||
1010201020222020,
|
||
1000100010112020,
|
||
30330000, //16
|
||
|
||
12101210,
|
||
2010201020222020,
|
||
12101210,
|
||
2010201020112020,
|
||
|
||
12101210,
|
||
2010201220122020,
|
||
1000201010112020,
|
||
3334, //24
|
||
|
||
500000000000000000000008000000000000400000000000,
|
||
500000000000000000000008000000000000400000000000,
|
||
500000000000000000000008000000000000400000000000,
|
||
500000000000000000000008000000000000400000000000,
|
||
|
||
1110400011104000,
|
||
1110400011104000,
|
||
3000300000222020,
|
||
7800, //32
|
||
|
||
#GOGOSTART
|
||
1000200210102011,
|
||
1010201110102000,
|
||
1010200210102010,
|
||
2010201000222020,
|
||
|
||
7000800210102010,
|
||
2011201020112010,
|
||
500000000000000000000008000000000000300000300000,
|
||
3000303022201110, //40
|
||
|
||
1000200210102011,
|
||
1010201110102000,
|
||
1010200210102010,
|
||
2010201000222020,
|
||
|
||
7000800210102010,
|
||
2011202210112050,
|
||
000000000000000000000000000000000000000008000000,
|
||
00033030, //48
|
||
#GOGOEND
|
||
|
||
40401121,
|
||
01010120,
|
||
10201221,
|
||
02020101,
|
||
|
||
2220222011101110,
|
||
500000000000000000000000000000000008000000000000,
|
||
1122112211112222,
|
||
7804, //56
|
||
|
||
#GOGOSTART
|
||
1000200210102011,
|
||
1010201110102000,
|
||
1010200210102010,
|
||
2010201000222020,
|
||
|
||
7000800210102010,
|
||
2011201020112010,
|
||
500000000000000000000008000000000000300000300000,
|
||
3000303022201110, //64
|
||
|
||
1000200210102011,
|
||
1010201110102000,
|
||
1010200210102010,
|
||
2010201000222020,
|
||
|
||
7000800210102010,
|
||
2011202210112050,
|
||
000000000000000000000000000000000000000008000000,
|
||
00033030, //72
|
||
#GOGOEND
|
||
|
||
40401121,
|
||
01010120,
|
||
1020221022101030,
|
||
0,
|
||
0, //77
|
||
#END
|
||
|
||
|
||
COURSE:Hard
|
||
LEVEL:4
|
||
BALLOON:3,13
|
||
SCOREINIT:580,2680
|
||
SCOREDIFF:163
|
||
|
||
#START
|
||
#GOGOSTART
|
||
0303,
|
||
0303,
|
||
0303,
|
||
0303,
|
||
|
||
0303,
|
||
0303,
|
||
0303,
|
||
600000000000000000000000000000000008000000000000, //8
|
||
#GOGOEND
|
||
|
||
1111,
|
||
11210220,
|
||
1111,
|
||
11210202,
|
||
|
||
1111,
|
||
11210121,
|
||
20201120,
|
||
30330000, //16
|
||
|
||
10201120,
|
||
11210220,
|
||
10201120,
|
||
11210202,
|
||
|
||
10201120,
|
||
11210220,
|
||
33,
|
||
3334, //24
|
||
|
||
500000000000000000000008000000000000400000000000,
|
||
500000000000000000000008000000000000400000000000,
|
||
500000000000000000000008000000000000400000000000,
|
||
500000000000000000000008000000000000400000000000,
|
||
|
||
11401140,
|
||
11401140,
|
||
3300,
|
||
7800,//32
|
||
|
||
#GOGOSTART
|
||
10221021,
|
||
01210121,
|
||
20201120,
|
||
11210220,
|
||
|
||
11201121,
|
||
01212020,
|
||
500000000000000000000008000000000000300000300000,
|
||
30330000, //40
|
||
|
||
10221021,
|
||
01212121,
|
||
20201120,
|
||
11210220,
|
||
|
||
11201121,
|
||
01212125,
|
||
000000000000000000000000000000000000000008000000,
|
||
00033030, //48
|
||
#GOGOEND
|
||
|
||
40401121,
|
||
01010120,
|
||
10201221,
|
||
02020101,
|
||
|
||
22221111,
|
||
500000000000000000000000000000000008000000000000,
|
||
9009,
|
||
8, //56
|
||
|
||
#GOGOSTART
|
||
10221021,
|
||
01210121,
|
||
20201120,
|
||
11210220,
|
||
|
||
11201121,
|
||
01212020,
|
||
500000000000000000000008000000000000300000300000,
|
||
30330000, //64
|
||
|
||
10221021,
|
||
01210121,
|
||
20201120,
|
||
11210220,
|
||
|
||
11201221,
|
||
02121215,
|
||
000000000000000000000000000000000000000008000000,
|
||
00033030, //72
|
||
#GOGOEND
|
||
|
||
40401121,
|
||
01010120,
|
||
500000000000000000000000000008000000000000300000,
|
||
0,
|
||
0, //77
|
||
#END
|
||
|
||
|
||
COURSE:Normal
|
||
LEVEL:3
|
||
BALLOON:2,10
|
||
SCOREINIT:690,4500
|
||
SCOREDIFF:263
|
||
|
||
#START
|
||
#GOGOSTART
|
||
0303,
|
||
0303,
|
||
0303,
|
||
0303,
|
||
|
||
0303,
|
||
0303,
|
||
0303,
|
||
600000000000000000000000000000000008000000000000, //8
|
||
#GOGOEND
|
||
|
||
0111,
|
||
0101,
|
||
0222,
|
||
0202,
|
||
|
||
0111,
|
||
0101,
|
||
0202,
|
||
3300, //16
|
||
|
||
0111,
|
||
0101,
|
||
0222,
|
||
0202,
|
||
|
||
0111,
|
||
0101,
|
||
33,
|
||
3333, //24
|
||
|
||
500000000000000000000008000000000000400000000000,
|
||
500000000000000000000008000000000000400000000000,
|
||
500000000000000000000008000000000000400000000000,
|
||
500000000000000000000008000000000000400000000000,
|
||
|
||
0404,
|
||
0404,
|
||
3300,
|
||
7800, //32
|
||
|
||
#GOGOSTART
|
||
10101110,
|
||
1110,
|
||
3300,
|
||
0, //36
|
||
|
||
10101110,
|
||
1120,
|
||
500000000000000000000008000000000000300000000000,
|
||
3300, //40
|
||
|
||
10101110,
|
||
1110,
|
||
3300,
|
||
0,
|
||
|
||
10101110,
|
||
1125,
|
||
000000000000000000000000000000000000000008000000,
|
||
00033000, //48
|
||
#GOGOEND
|
||
|
||
4400,
|
||
0,
|
||
0202,
|
||
0202,
|
||
|
||
0222,
|
||
0222,
|
||
9009,
|
||
8, //56
|
||
|
||
#GOGOSTART
|
||
10101110,
|
||
1110,
|
||
3300,
|
||
0,
|
||
|
||
10101110,
|
||
1120,
|
||
500000000000000000000008000000000000300000000000,
|
||
3300, //64
|
||
|
||
10101110,
|
||
1110,
|
||
3300,
|
||
0,
|
||
|
||
10101110,
|
||
1125,
|
||
000000000000000000000000000000000000000008000000,
|
||
00033000, //72
|
||
#GOGOEND
|
||
|
||
4400,
|
||
0,
|
||
500000000000000000000000000008000000000000300000,
|
||
0,
|
||
0, //77
|
||
#END
|
||
|
||
|
||
COURSE:Easy
|
||
LEVEL:3
|
||
BALLOON:2,8
|
||
SCOREINIT:540,5100
|
||
SCOREDIFF:215
|
||
|
||
#START
|
||
#GOGOSTART
|
||
0303,
|
||
0303,
|
||
0303,
|
||
0303,
|
||
|
||
0303,
|
||
0303,
|
||
0303,
|
||
600000000000000000000000000000000008000000000000, //8
|
||
#GOGOEND
|
||
|
||
0101,
|
||
0101,
|
||
0202,
|
||
0202,
|
||
|
||
0101,
|
||
0101,
|
||
0202,
|
||
3300, //16
|
||
|
||
0111,
|
||
0101,
|
||
0222,
|
||
0202,
|
||
|
||
0111,
|
||
0101,
|
||
33,
|
||
3333, //24
|
||
|
||
500000000000000000000008000000000000400000000000,
|
||
500000000000000000000008000000000000400000000000,
|
||
500000000000000000000008000000000000400000000000,
|
||
500000000000000000000008000000000000400000000000,
|
||
|
||
0404,
|
||
0404,
|
||
3300,
|
||
7800, //32
|
||
|
||
#GOGOSTART
|
||
0101,
|
||
0111,
|
||
0101,
|
||
0111,
|
||
|
||
0202,
|
||
0222,
|
||
0203,
|
||
3300, //40
|
||
|
||
0101,
|
||
0111,
|
||
0101,
|
||
0111,
|
||
|
||
0202,
|
||
0225,
|
||
000000000000000000000000000000000000000008000000,
|
||
00033000, //48
|
||
#GOGOEND
|
||
|
||
4400,
|
||
0,
|
||
0202,
|
||
0202,
|
||
|
||
0202,
|
||
0202,
|
||
9009,
|
||
8, //56
|
||
|
||
#GOGOSTART
|
||
0101,
|
||
0111,
|
||
0101,
|
||
0111,
|
||
|
||
0202,
|
||
0222,
|
||
0203,
|
||
3300,
|
||
|
||
0101,
|
||
0111,
|
||
0101,
|
||
0111,
|
||
|
||
0202,
|
||
0225,
|
||
000000000000000000000000000000000000000008000000,
|
||
00033000, //72
|
||
#GOGOEND
|
||
|
||
4400,
|
||
0,
|
||
500000000000000000000000000008000000000000300000,
|
||
0,
|
||
0, //77
|
||
#END
|