278 lines
11 KiB
Plaintext
278 lines
11 KiB
Plaintext
//TJADB Project
|
|
TITLE:Minna de Taisen! Asamade Puyo Puyo
|
|
TITLEJA:みんなで対戦!朝までぷよぷよ
|
|
SUBTITLE:--Takeshi Matsushima/Puyo Puyo Fever
|
|
BPM:149.957
|
|
WAVE:Minna de Taisen Asamade Puyo Puyo.ogg
|
|
OFFSET:-1.128
|
|
DEMOSTART:65.137
|
|
|
|
COURSE:Oni
|
|
LEVEL:7
|
|
SCOREINIT:810
|
|
SCOREDIFF:190
|
|
|
|
|
|
#START
|
|
|
|
|
|
300000000000000000000000000000200000200200200000,
|
|
100000000000200000000000100000000000200000000000,
|
|
100000100100000000100000000000200000200200200000,
|
|
100000100100200100000000200000000000200000000000,
|
|
300000000000000000000000000000200000200200200000,
|
|
100000000000200000000000100000000000200000000000,
|
|
100000100100000000100000000000200000200200200000,
|
|
100000100100200100000000200000000000200000000000,
|
|
000000200200000000200200000000200200000000200200,
|
|
000000200200000000200200000000200200000000200200,
|
|
000000200200000000200200200100100100200200000200,
|
|
000000200200000200200000200200000200200000200000,
|
|
000000200200000000200200200100100100200000200000,
|
|
000000100100000100100000100200200200100200200200,
|
|
000000200200000000200200000000200000200000200200,
|
|
000200200100200000200000200000000200000000200000,
|
|
300000000000000000000000000000200000200200200000,
|
|
100000000000200000000000100000000000200000000000,
|
|
100000100100000000100000000000200000200200200000,
|
|
100000100100200100000000200000000000200000000000,
|
|
300000000000000000000000000000200000200200200000,
|
|
100000000000200000000000100000000000200000000000,
|
|
100000100100000000100000000000200000200200200000,
|
|
100000100100200100000000200000000000200000000000,
|
|
|
|
#GOGOSTART
|
|
100100200100000000000200000200200000200000200200,
|
|
100200000200000000000000000200200000200000100000,
|
|
200200200100000000000000000200200000200000200000,
|
|
200200100100000000000100000100100000100000200000,
|
|
200200100200000000000100000100100000100000200200,
|
|
100200000200000000000000000100100000100000100000,
|
|
200200200100000000000000000100100000100000200000,
|
|
200200100100000000000200000200200000200000200000,
|
|
100100200100000000000200000200200000200000200200,
|
|
100200000200000000000000000200200000200000100000,
|
|
200200200100000000000000000200200000200000200000,
|
|
200200100100000000000100000100100000100000200000,
|
|
100100200100000000000200000200200000200000200200,
|
|
100200000200000000000000000200200000200000100000,
|
|
200200100100200200100100200200100100200200100000,
|
|
000000300000400000000000300000400000000000000000,
|
|
|
|
#GOGOEND
|
|
300000000000000000000000000000200000200200200000,
|
|
100100100000200000100100100000100000200000000000,
|
|
100000100100000000100000000000200000200200200000,
|
|
100000100100200100000000200000000000200000000000,
|
|
300000000000000000000000000000200000200200200000,
|
|
100100100000200000100100100000100000200000000000,
|
|
100000100100000000100000000000200000200200200000,
|
|
100000100100200100000000200000100100100000000000,
|
|
400000000000000000000000000000000000000000000000,
|
|
|
|
|
|
#END
|
|
|
|
|
|
COURSE:Hard
|
|
LEVEL:6
|
|
BALLOON:8,8,12
|
|
SCOREINIT:900
|
|
SCOREDIFF:220
|
|
|
|
|
|
#START
|
|
|
|
|
|
300000000000000000000000000000200000200200200000,
|
|
100000000000200000000000100000000000200000000000,
|
|
100000000100000000100000000000200000200000200000,
|
|
100000100100000100100000200000000000200000000000,
|
|
300000000000000000000000000000200000200200200000,
|
|
100000000000200000000000100000000000200000000000,
|
|
100000000100000000100000000000200000200000200000,
|
|
100000100100000100100000200000000000200000000000,
|
|
000000200200000000200200000000200200000000200200,
|
|
000000200200000000200200000000200200000000200200,
|
|
000000200200000000200200000200000000200000000000,
|
|
700000000000000000000000000000000008000000000000,
|
|
000000200200000000200200000200000200200000200000,
|
|
000000200200000200000000200200000200200200200200,
|
|
000000200200000000200200000200000000200000000000,
|
|
700000000000000000000000000000000008000000000000,
|
|
300000000000000000000000000000200000200200200000,
|
|
100000000000200000000000100000000000200000000000,
|
|
100000000100000000100000000000200000200000200000,
|
|
100000100100000100100000200000000000200000000000,
|
|
300000000000000000000000000000200000200200200000,
|
|
100000000000200000000000100000000000200000000000,
|
|
100000000100000000100000000000200000200000200000,
|
|
100000100100000100100000200000000000200000000000,
|
|
#GOGOSTART
|
|
100100000100000000000000000000200000200000000000,
|
|
100100000100000000000000000000200000200000000000,
|
|
100100000100000000000000000000200000200000000000,
|
|
100100000100000000000100000100100000100000000000,
|
|
200200000200000000000000000000100000100000000000,
|
|
200200000200000000000000000000100000100000000000,
|
|
200200000200000000000000000000100000100000000000,
|
|
200200000200000000000200000200200000200000000000,
|
|
100100100100000000000000000000200000200000000000,
|
|
100100000100000000000000000000200000200000000000,
|
|
100100100100000000000000000000200000200000000000,
|
|
100100000100000000000100000100100000100000000000,
|
|
100100100100000000000000000000200000200000000000,
|
|
100100000200000000000000000000200000200000000000,
|
|
700000000000000000000000000000000000000000000008,
|
|
000000300000400000000000300000400000000000000000,
|
|
#GOGOEND
|
|
300000000000000000000000000000200000200200200000,
|
|
100000000000200000000000100000000000200000000000,
|
|
100000000100000000100000000000200000200000200000,
|
|
100000100100000100100000200000000000200000000000,
|
|
300000000000000000000000000000200000200200200000,
|
|
100000000000200000000000100000000000200000000000,
|
|
100000000100000000100000000000200000200000200000,
|
|
100000100100000100100000200000000000100000000000,
|
|
400000000000000000000000000000000000000000000000,
|
|
|
|
|
|
#END
|
|
|
|
|
|
COURSE:Normal
|
|
LEVEL:4
|
|
BALLOON:6,6,9
|
|
SCOREINIT:800
|
|
SCOREDIFF:200
|
|
|
|
|
|
#START
|
|
|
|
|
|
300000000000000000000000000000200000200000000000,
|
|
100000000000200000000000100000000000200000000000,
|
|
100000000100000000100000000000200000200000000000,
|
|
100000100000100000000000200000000000200000000000,
|
|
300000000000000000000000000000200000200000000000,
|
|
100000000000200000000000100000000000200000000000,
|
|
100000000100000000100000000000200000200000000000,
|
|
100000100000100000000000200000000000200000000000,
|
|
000000200000000000200000000000200000000000200000,
|
|
000000500000000000000000000000000008000000000000,
|
|
000000100000000000100000000000100000100000000000,
|
|
700000000000000000000000000000000000000000000000,
|
|
000000000000000000000008000000000000000000000000,
|
|
000000200000000000200000000000200000000000200000,
|
|
000000500000000000000000000000000008000000000000,
|
|
000000100000000000100000000000100000100000000000,
|
|
700000000000000000000000000000000000000000000000,
|
|
000000000000000000000008000000000000000000000000,
|
|
300000000000000000000000000000200000200000000000,
|
|
100000000000200000000000100000000000200000000000,
|
|
100000000100000000100000000000200000200000000000,
|
|
100000100000100000000000200000000000200000000000,
|
|
300000000000000000000000000000200000200000000000,
|
|
100000000000200000000000100000000000200000000000,
|
|
100000000100000000100000000000200000200000000000,
|
|
100000100000100000000000200000000000200000000000,
|
|
#GOGOSTART
|
|
300000000000300000000000000000200000200000000000,
|
|
300000000000300000000000000000200000200000000000,
|
|
300000000000300000000000000000200000200000000000,
|
|
100000000000100000000100000000100000100000000000,
|
|
400000000000400000000000000000100000100000000000,
|
|
400000000000400000000000000000100000100000000000,
|
|
400000000000400000000000000000100000100000000000,
|
|
200000000000200000000200000000200000200000000000,
|
|
300000000000300000000000000000200000200000000000,
|
|
300000000000300000000000000000200000200000000000,
|
|
300000000000300000000000000000200000200000000000,
|
|
100000000000100000000100000000100000100000000000,
|
|
300000000000400000000000000000200000200000000000,
|
|
300000000000400000000000000000200000200000000000,
|
|
700000000000000000000000000000000000000000000000,
|
|
000000000000000000000000000000000000000000000008,
|
|
000000000000400000000000000000400000000000000000,
|
|
#GOGOEND
|
|
300000000000000000000000000000200000200000000000,
|
|
100000000000200000000000100000000000200000000000,
|
|
100000000100000000100000000000200000200000000000,
|
|
100000100000100000000000200000000000200000000000,
|
|
300000000000000000000000000000200000200000000000,
|
|
100000000000200000000000100000000000200000000000,
|
|
100000000100000000100000000000200000200000000000,
|
|
100000100000100000000000200000000000100000000000,
|
|
400000000000000000000000000000000000000000000000,
|
|
|
|
|
|
#END
|
|
|
|
|
|
COURSE:Easy
|
|
LEVEL:2
|
|
BALLOON:6
|
|
SCOREINIT:1010
|
|
SCOREDIFF:440
|
|
|
|
|
|
#START
|
|
|
|
|
|
300000000000000000000000000000000000000000000000,
|
|
100000000000100000000000100000000000000000000000,
|
|
100000000000000000000000100000000000000000000000,
|
|
500000000000000000000000000008000000000000000000,
|
|
300000000000000000000000000000000000000000000000,
|
|
100000000000100000000000100000000000000000000000,
|
|
100000000000000000000000100000000000000000000000,
|
|
500000000000000000000000000008000000000000000000,
|
|
000000000000200000000000000000000000200000000000,
|
|
000000000000200000000000200000000000200000000000,
|
|
000000000000200000000000000000000000200000000000,
|
|
000000000000100000000000100000000000000000000000,
|
|
000000000000200000000000000000000000200000000000,
|
|
000000000000200000000000200000000000200000000000,
|
|
000000000000200000000000000000000000200000000000,
|
|
000000000000100000000000100000000000000000000000,
|
|
300000000000000000000000000000000000000000000000,
|
|
100000000000100000000000100000000000000000000000,
|
|
100000000000000000000000200000000000000000000000,
|
|
500000000000000000000000000008000000000000000000,
|
|
300000000000000000000000000000000000000000000000,
|
|
100000000000100000000000100000000000000000000000,
|
|
100000000000000000000000200000000000000000000000,
|
|
500000000000000000000000000008000000000000000000,
|
|
#GOGOSTART
|
|
100000000000100000000000000000000000000000000000,
|
|
100000000000100000000000000000000000000000000000,
|
|
100000000000100000000000000000000000000000000000,
|
|
200000000000200000000000000000000000000000000000,
|
|
100000000000100000000000000000000000000000000000,
|
|
100000000000100000000000000000000000000000000000,
|
|
100000000000100000000000000000000000000000000000,
|
|
200000000000200000000000000000000000000000000000,
|
|
100000000000100000000000000000000000200000000000,
|
|
100000000000100000000000000000000000200000000000,
|
|
100000000000100000000000000000000000200000000000,
|
|
100000000000100000000000000000000000200000000000,
|
|
100000000000200000000000000000000000200000000000,
|
|
100000000000200000000000000000000000200000000000,
|
|
700000000000000000000000000000000000000000000000,
|
|
000000000000000000000000000000000000000000000008,
|
|
000000000000000000000000000000000000000000000000,
|
|
#GOGOEND
|
|
300000000000000000000000000000000000000000000000,
|
|
100000000000100000000000100000000000000000000000,
|
|
200000000000000000000000200000000000000000000000,
|
|
500000000000000000000000000008000000000000000000,
|
|
300000000000000000000000000000000000000000000000,
|
|
100000000000100000000000100000000000000000000000,
|
|
200000000000000000000000200000000000000000000000,
|
|
500000000000000000000000000008000000000000000000,
|
|
400000000000000000000000000000000000000000000000,
|
|
|
|
|
|
#END
|
|
|