996 lines
14 KiB
Plaintext
996 lines
14 KiB
Plaintext
//TJADB Project
|
|
TITLE:Monster Hunter 4 Ultimate Medley
|
|
TITLEJA:モンスターハンター4G メドレー
|
|
SUBTITLE:--Marika Suzuki/Monster Hunter 4 Ultimate
|
|
SUBTITLEJA:
|
|
BPM:104.21
|
|
WAVE:Monster Hunter 4 Ultimate Medley.ogg
|
|
OFFSET:-2.626
|
|
DEMOSTART:2.613
|
|
SCENEPRESET:MH3RD
|
|
|
|
COURSE:Oni
|
|
LEVEL:9
|
|
BALLOON:
|
|
SCOREINIT:410
|
|
SCOREDIFF:108
|
|
|
|
#START
|
|
#SCROLL 1.02
|
|
#GOGOSTART
|
|
100120100010100010202100,
|
|
#BPMCHANGE 108.30
|
|
#SCROLL 0.98
|
|
200100102020100202200220,
|
|
#BPMCHANGE 104.40
|
|
#SCROLL 1.02
|
|
101020002010200101101100,
|
|
#BPMCHANGE 109.23
|
|
#SCROLL 0.97
|
|
102202000200002001010100,
|
|
|
|
#BPMCHANGE 105.07
|
|
#SCROLL 1.01
|
|
100120100110200100201010,
|
|
#MEASURE 15/16
|
|
#BPMCHANGE 106.92
|
|
#SCROLL 1
|
|
500000000008000020002000
|
|
#SCROLL 0.99
|
|
200000100000100000000,
|
|
#MEASURE 4/4
|
|
#BPMCHANGE 103.10
|
|
#SCROLL 1.03
|
|
112012200400,
|
|
#BPMCHANGE 108.71
|
|
#SCROLL 0.98
|
|
300111100100000300300000, //8
|
|
#GOGOEND
|
|
|
|
#BPMCHANGE 95.00
|
|
#SCROLL 1
|
|
2021212120212022,
|
|
1000100020021020,
|
|
3,
|
|
300000001000200000000000200000100100101010200200,
|
|
|
|
1001101021012101,
|
|
200200100100200000001010200000000000200000000000,
|
|
100000100100200000001020100000000200000000100000,
|
|
1011201010011011, //16
|
|
|
|
200000000100100000100000200000000100202020202020,
|
|
200000200000200000002010200000000200200000200200,
|
|
1221012010120210,
|
|
100000200100000100001020100000200000200000200000,
|
|
|
|
100000100100200010001000200000200000000200000000,
|
|
100000100100200010001000200010001000200010001000,
|
|
200000000100200010001000002010200000000200000000,
|
|
#BPMCHANGE 94.54
|
|
1, //24
|
|
|
|
#MEASURE 6/4
|
|
#BPMCHANGE 99.09
|
|
#SCROLL 0.95
|
|
300000000003
|
|
#BPMCHANGE 86.62
|
|
#SCROLL 1.09
|
|
000000300000300000102020,
|
|
#MEASURE 4/4
|
|
#BPMCHANGE 83.65
|
|
#SCROLL 1.13
|
|
100300122122, //26
|
|
|
|
#MEASURE 5/8
|
|
#BPMCHANGE 150
|
|
#SCROLL 1
|
|
#GOGOSTART
|
|
3,
|
|
30030,
|
|
3000002011,
|
|
2010101110,
|
|
#MEASURE 3/4
|
|
43,
|
|
#BPMCHANGE 151.52
|
|
#SCROLL 0.98
|
|
400000000300000111, //32
|
|
|
|
#MEASURE 5/8
|
|
#BPMCHANGE 150.07
|
|
#SCROLL 0.99
|
|
2000211110,
|
|
100221000221000,
|
|
#MEASURE 3/4
|
|
#BPMCHANGE 147.13
|
|
#SCROLL 1.01
|
|
24,
|
|
#BPMCHANGE 150.66
|
|
#SCROLL 0.99
|
|
300000000400000222, //36
|
|
|
|
#MEASURE 5/8
|
|
#BPMCHANGE 150.66
|
|
1000101212,
|
|
#BPMCHANGE 150.06
|
|
2010112012,
|
|
#BPMCHANGE 149.92
|
|
#SCROLL 1
|
|
2012101022,
|
|
100102100102100,
|
|
20222,
|
|
2011112012,
|
|
|
|
2010102210,
|
|
#MEASURE 4/4
|
|
300122111200,
|
|
#GOGOEND
|
|
#BPMCHANGE 151.37
|
|
#SCROLL 0.99
|
|
400222200111, //45
|
|
|
|
#BPMCHANGE 150.40
|
|
2000111011101111,
|
|
2000111010202222,
|
|
1000111010201111,
|
|
#BPMCHANGE 149.88
|
|
#SCROLL 1
|
|
2000101120201111,
|
|
|
|
2000111010202222,
|
|
1000111020102122,
|
|
#BPMCHANGE 150.92
|
|
#SCROLL 0.99
|
|
111212211212,
|
|
#BPMCHANGE 149.53
|
|
#SCROLL 1
|
|
211212112122, //53
|
|
|
|
#BPMCHANGE 150
|
|
#SCROLL 1.2
|
|
#GOGOSTART
|
|
1220102012021220,
|
|
1020120211112111,
|
|
2220102012021220,
|
|
1020120212221211,
|
|
|
|
2220102102121221,
|
|
2021121212221211,
|
|
2220102102121221,
|
|
2021221212221221, //61
|
|
|
|
#MEASURE 3/4
|
|
202021112111,
|
|
#SCROLL 1.4
|
|
202021112111,
|
|
#SCROLL 1.6
|
|
202021112111,
|
|
#MEASURE 4/4
|
|
#BPMCHANGE 147.84
|
|
#SCROLL 1.8
|
|
20040400,
|
|
#MEASURE 3/4
|
|
#BPMCHANGE 147.31
|
|
0, //66
|
|
#GOGOEND
|
|
|
|
#MEASURE 4/4
|
|
#BPMCHANGE 134.45
|
|
#SCROLL 1
|
|
3000400000000022,
|
|
#BPMCHANGE 136.00
|
|
#SCROLL 0.98
|
|
112122,
|
|
#BPMCHANGE 132.52
|
|
#SCROLL 1.01
|
|
100000001000000020000000100000100100100000000000,
|
|
#BPMCHANGE 133.09
|
|
112211,
|
|
|
|
#BPMCHANGE 131.56
|
|
#SCROLL 1.02
|
|
3021201022112010,
|
|
#BPMCHANGE 134.56
|
|
#SCROLL 0.99
|
|
200222200200100111200000,
|
|
#BPMCHANGE 135.56
|
|
3021201022112010,
|
|
#BPMCHANGE 134.73
|
|
200000202020200000200000200100100100100100100100, //74
|
|
|
|
#BPMCHANGE 133.26
|
|
#SCROLL 1
|
|
2021201022112010,
|
|
#BPMCHANGE 130.94
|
|
#SCROLL 1.02
|
|
1121201022121020,
|
|
#BPMCHANGE 132.41
|
|
#SCROLL 1.01
|
|
3021002210102210,
|
|
#BPMCHANGE 138.85
|
|
#SCROLL 0.96
|
|
1021002210011010,
|
|
|
|
#BPMCHANGE 134.67
|
|
#SCROLL 0.99
|
|
2012001220102210,
|
|
#BPMCHANGE 133.58
|
|
#SCROLL 1
|
|
2022001122112211,
|
|
#BPMCHANGE 134.56
|
|
#SCROLL 0.99
|
|
2020002210200010,
|
|
#MEASURE 2/4
|
|
#BPMCHANGE 130.65
|
|
#SCROLL 1.02
|
|
40400022,
|
|
#MEASURE 4/4
|
|
#BPMCHANGE 126.63
|
|
#SCROLL 1.06
|
|
2, //83
|
|
|
|
#BPMCHANGE 142.32
|
|
#SCROLL 0.99
|
|
#GOGOSTART
|
|
1021102011221020,
|
|
#BPMCHANGE 140.80
|
|
#SCROLL 1
|
|
1022102000212010,
|
|
#BPMCHANGE 140.92
|
|
2022102000221010,
|
|
#BPMCHANGE 141.33
|
|
2220111022201110,
|
|
|
|
#BPMCHANGE 140.40
|
|
#SCROLL 1.01
|
|
21212000,
|
|
#BPMCHANGE 142.87
|
|
#SCROLL 0.99
|
|
03000000,
|
|
#BPMCHANGE 141.95
|
|
#SCROLL 1
|
|
200000200200000200200200200000101010200000000000,
|
|
#GOGOEND
|
|
0,
|
|
0, //92
|
|
#END
|
|
|
|
|
|
COURSE:Hard
|
|
LEVEL:7
|
|
BALLOON:10,10,20
|
|
SCOREINIT:480
|
|
SCOREDIFF:120
|
|
|
|
#START
|
|
#SCROLL 1.02
|
|
#GOGOSTART
|
|
100000202000500000000000000008000000200010100000,
|
|
#BPMCHANGE 108.30
|
|
#SCROLL 0.98
|
|
500000000008000020002000200000000000100000000000,
|
|
#BPMCHANGE 104.40
|
|
#SCROLL 1.02
|
|
112022100200,
|
|
#BPMCHANGE 109.23
|
|
#SCROLL 0.97
|
|
7008,
|
|
|
|
#BPMCHANGE 105.07
|
|
#SCROLL 1.01
|
|
100000202000500000000000000008000000200020001000,
|
|
#MEASURE 15/16
|
|
#BPMCHANGE 106.92
|
|
#SCROLL 1
|
|
500000000008000010001000
|
|
#SCROLL 0.99
|
|
200000000000000000000,
|
|
#MEASURE 4/4
|
|
#BPMCHANGE 103.10
|
|
#SCROLL 1.03
|
|
112022200400,
|
|
#BPMCHANGE 108.71
|
|
#SCROLL 0.98
|
|
600000000000000000000000000008000000000000000000, //8
|
|
#GOGOEND
|
|
|
|
#BPMCHANGE 95.00
|
|
#SCROLL 1
|
|
2020200020202022,
|
|
1000100020011010,
|
|
3,
|
|
300000001000200000000000200000000000100100100100,
|
|
|
|
1001101010011010,
|
|
1001101010011000,
|
|
2002202020022020,
|
|
2002202020022000, //16
|
|
|
|
1001101010011010,
|
|
2002202020022020,
|
|
1001101010011010,
|
|
2002202020202020,
|
|
|
|
1000000000200200,
|
|
100000222222,
|
|
2000000000200200,
|
|
#BPMCHANGE 94.54
|
|
1, //24
|
|
|
|
#MEASURE 6/4
|
|
#BPMCHANGE 99.09
|
|
#SCROLL 0.95
|
|
300000000003
|
|
#BPMCHANGE 86.62
|
|
#SCROLL 1.09
|
|
000000300000300000101010,
|
|
#MEASURE 4/4
|
|
#BPMCHANGE 83.65
|
|
#SCROLL 1.13
|
|
100300111111, //26
|
|
|
|
#MEASURE 5/8
|
|
#BPMCHANGE 150
|
|
#SCROLL 1
|
|
#GOGOSTART
|
|
3,
|
|
30030,
|
|
30011,
|
|
3000001110,
|
|
#MEASURE 3/4
|
|
43,
|
|
#BPMCHANGE 151.52
|
|
#SCROLL 0.98
|
|
43, //32
|
|
|
|
#MEASURE 5/8
|
|
#BPMCHANGE 150.07
|
|
#SCROLL 0.99
|
|
1000101110,
|
|
11010,
|
|
#MEASURE 3/4
|
|
#BPMCHANGE 147.13
|
|
#SCROLL 1.01
|
|
24,
|
|
#BPMCHANGE 150.66
|
|
#SCROLL 0.99
|
|
34, //36
|
|
|
|
#MEASURE 5/8
|
|
#BPMCHANGE 150.66
|
|
1000100011,
|
|
#BPMCHANGE 150.06
|
|
1000002011,
|
|
#BPMCHANGE 149.92
|
|
#SCROLL 1
|
|
1000101011,
|
|
1001100110,
|
|
10222,
|
|
2000101022,
|
|
|
|
2020102220,
|
|
#MEASURE 4/4
|
|
7008,
|
|
#GOGOEND
|
|
#BPMCHANGE 151.37
|
|
#SCROLL 0.99
|
|
400000000111, //45
|
|
|
|
#BPMCHANGE 150.40
|
|
1000111011101000,
|
|
2000111010101111,
|
|
1000100011111000,
|
|
#BPMCHANGE 149.88
|
|
#SCROLL 1
|
|
1000101110001111,
|
|
|
|
1000100010101111,
|
|
1000100010001011,
|
|
#BPMCHANGE 150.92
|
|
#SCROLL 0.99
|
|
7,
|
|
#BPMCHANGE 149.53
|
|
#SCROLL 1
|
|
000000000000000000000000000000000008000000000000, //53
|
|
|
|
#GOGOSTART
|
|
#BPMCHANGE 150
|
|
#SCROLL 1.2
|
|
2220003000002220,
|
|
03003040,
|
|
2220003000002220,
|
|
0030000011101110,
|
|
|
|
2220003000002220,
|
|
0030000011101110,
|
|
2220003000002220,
|
|
0030000011102220, //61
|
|
|
|
#MEASURE 3/4
|
|
404000112000,
|
|
#SCROLL 1.4
|
|
404000122000,
|
|
#SCROLL 1.6
|
|
404000222000,
|
|
#MEASURE 4/4
|
|
#BPMCHANGE 147.84
|
|
#SCROLL 1.8
|
|
40040400,
|
|
#MEASURE 3/4
|
|
#BPMCHANGE 147.31
|
|
0, //66
|
|
#GOGOEND
|
|
|
|
#MEASURE 4/4
|
|
#BPMCHANGE 134.45
|
|
#SCROLL 1
|
|
3000400000000011,
|
|
#BPMCHANGE 136.00
|
|
#SCROLL 0.98
|
|
112122,
|
|
#BPMCHANGE 132.52
|
|
#SCROLL 1.01
|
|
100000001000000020000000100000100100100000000000,
|
|
#BPMCHANGE 133.09
|
|
112211,
|
|
|
|
#BPMCHANGE 131.56
|
|
#SCROLL 1.02
|
|
3001101010011010,
|
|
#BPMCHANGE 134.56
|
|
#SCROLL 0.99
|
|
100000002000000020000000100000100100200000000000,
|
|
#BPMCHANGE 135.56
|
|
1001101010011010,
|
|
#BPMCHANGE 134.73
|
|
100000002000000020000000200000100100100100100000, //74
|
|
|
|
#BPMCHANGE 133.26
|
|
#SCROLL 1
|
|
3001101010011010,
|
|
#BPMCHANGE 130.94
|
|
#SCROLL 1.02
|
|
122122,
|
|
#BPMCHANGE 132.41
|
|
#SCROLL 1.01
|
|
3001101010011010,
|
|
#BPMCHANGE 138.85
|
|
#SCROLL 0.96
|
|
1002202020022020,
|
|
|
|
#BPMCHANGE 134.67
|
|
#SCROLL 0.99
|
|
1001101010002020,
|
|
#BPMCHANGE 133.58
|
|
#SCROLL 1
|
|
100000000000000000100100100000001000000010000000,
|
|
#BPMCHANGE 134.56
|
|
#SCROLL 0.99
|
|
2020002220200010,
|
|
#MEASURE 2/4
|
|
#BPMCHANGE 130.65
|
|
#SCROLL 1.02
|
|
40400022,
|
|
#MEASURE 4/4
|
|
#BPMCHANGE 126.63
|
|
#SCROLL 1.06
|
|
2, //83
|
|
|
|
#BPMCHANGE 142.32
|
|
#SCROLL 0.99
|
|
#GOGOSTART
|
|
1011101011101000,
|
|
#BPMCHANGE 140.80
|
|
#SCROLL 1
|
|
2022202000222020,
|
|
#BPMCHANGE 140.92
|
|
1011101000111010,
|
|
#BPMCHANGE 141.33
|
|
2220111022201110,
|
|
|
|
#BPMCHANGE 140.40
|
|
#SCROLL 1.01
|
|
21212000,
|
|
#BPMCHANGE 142.87
|
|
#SCROLL 0.99
|
|
03000000,
|
|
#BPMCHANGE 141.95
|
|
#SCROLL 1
|
|
2022022220003000,
|
|
#GOGOEND
|
|
0,
|
|
0, //92
|
|
#END
|
|
|
|
|
|
COURSE:Normal
|
|
LEVEL:6
|
|
BALLOON:6,6,15
|
|
SCOREINIT:610
|
|
SCOREDIFF:180
|
|
|
|
#START
|
|
#SCROLL 1.02
|
|
#GOGOSTART
|
|
300000000000600000000000000000000008000000000000,
|
|
#BPMCHANGE 108.30
|
|
#SCROLL 0.98
|
|
600000000008000000000000300000000000400000000000,
|
|
#BPMCHANGE 104.40
|
|
#SCROLL 1.02
|
|
3033,
|
|
#BPMCHANGE 109.23
|
|
#SCROLL 0.97
|
|
7008,
|
|
|
|
#BPMCHANGE 105.07
|
|
#SCROLL 1.01
|
|
300000000000600000000000000000000008000000000000,
|
|
#MEASURE 15/16
|
|
#BPMCHANGE 106.92
|
|
#SCROLL 1
|
|
600000000008000000000000
|
|
#SCROLL 0.99
|
|
300000000000000000000,
|
|
#MEASURE 4/4
|
|
#BPMCHANGE 103.10
|
|
#SCROLL 1.03
|
|
3034,
|
|
#BPMCHANGE 108.71
|
|
#SCROLL 0.98
|
|
600000000000000000000000000008000000000000000000, //8
|
|
#GOGOEND
|
|
|
|
#BPMCHANGE 95.00
|
|
#SCROLL 1
|
|
20002011,
|
|
1110,
|
|
3,
|
|
30000011,
|
|
|
|
1001100010001000,
|
|
1001100010000000,
|
|
2002200020002000,
|
|
2002200020000000, //16
|
|
|
|
1001100010002000,
|
|
2002202020000000,
|
|
1001100010000000,
|
|
2002202020002000,
|
|
|
|
1000000000200200,
|
|
1022,
|
|
2000000000200200,
|
|
#BPMCHANGE 94.54
|
|
1, //24
|
|
|
|
#MEASURE 6/4
|
|
#BPMCHANGE 99.09
|
|
#SCROLL 0.95
|
|
300000000003
|
|
#BPMCHANGE 86.62
|
|
#SCROLL 1.09
|
|
000000300000300000300000,
|
|
#MEASURE 4/4
|
|
#BPMCHANGE 83.65
|
|
#SCROLL 1.13
|
|
3330, //26
|
|
|
|
#MEASURE 5/8
|
|
#BPMCHANGE 150
|
|
#SCROLL 1
|
|
#GOGOSTART
|
|
3,
|
|
30030,
|
|
3,
|
|
3,
|
|
#MEASURE 3/4
|
|
43,
|
|
#BPMCHANGE 151.52
|
|
#SCROLL 0.98
|
|
43, //32
|
|
|
|
#MEASURE 5/8
|
|
#BPMCHANGE 150.07
|
|
#SCROLL 0.99
|
|
3,
|
|
10010,
|
|
#MEASURE 3/4
|
|
#BPMCHANGE 147.13
|
|
#SCROLL 1.01
|
|
34,
|
|
#BPMCHANGE 150.66
|
|
#SCROLL 0.99
|
|
34, //36
|
|
|
|
#MEASURE 5/8
|
|
#BPMCHANGE 150.66
|
|
10010,
|
|
#BPMCHANGE 150.06
|
|
10001,
|
|
#BPMCHANGE 149.92
|
|
#SCROLL 1
|
|
10001,
|
|
10101,
|
|
10200,
|
|
20003, //42
|
|
|
|
3,
|
|
#MEASURE 4/4
|
|
7008,
|
|
#GOGOEND
|
|
#BPMCHANGE 151.37
|
|
#SCROLL 0.99
|
|
4001, //45
|
|
|
|
#BPMCHANGE 150.40
|
|
1011,
|
|
20111000,
|
|
1022,
|
|
#BPMCHANGE 149.88
|
|
#SCROLL 1
|
|
10222000,
|
|
|
|
1011,
|
|
10111020,
|
|
#BPMCHANGE 150.92
|
|
#SCROLL 0.99
|
|
7,
|
|
#BPMCHANGE 149.53
|
|
#SCROLL 1
|
|
000000000000000000000000000000000008000000000000, //53
|
|
|
|
#BPMCHANGE 150
|
|
#SCROLL 1.2
|
|
#GOGOSTART
|
|
22030022,
|
|
03003040,
|
|
22030022,
|
|
03003040,
|
|
|
|
22030022,
|
|
03003040,
|
|
22030022,
|
|
03003040, //61
|
|
|
|
#MEASURE 3/4
|
|
440110,
|
|
#SCROLL 1.4
|
|
440110,
|
|
#SCROLL 1.6
|
|
440110,
|
|
#MEASURE 4/4
|
|
#BPMCHANGE 147.84
|
|
#SCROLL 1.8
|
|
40040400,
|
|
#MEASURE 3/4
|
|
#BPMCHANGE 147.31
|
|
0, //66
|
|
#GOGOEND
|
|
|
|
#MEASURE 4/4
|
|
#BPMCHANGE 134.45
|
|
#SCROLL 1
|
|
3,
|
|
#BPMCHANGE 136.00
|
|
#SCROLL 0.98
|
|
1110,
|
|
#BPMCHANGE 132.52
|
|
#SCROLL 1.01
|
|
1110,
|
|
#BPMCHANGE 133.09
|
|
10101110,
|
|
|
|
#BPMCHANGE 131.56
|
|
#SCROLL 1.02
|
|
3212,
|
|
#BPMCHANGE 134.56
|
|
#SCROLL 0.99
|
|
10111000,
|
|
#BPMCHANGE 135.56
|
|
3212,
|
|
#BPMCHANGE 134.73
|
|
100000000000200000200000500000000008000000000000, //74
|
|
|
|
#BPMCHANGE 133.26
|
|
#SCROLL 1
|
|
3212,
|
|
#BPMCHANGE 130.94
|
|
#SCROLL 1.02
|
|
10111000,
|
|
#BPMCHANGE 132.41
|
|
#SCROLL 1.01
|
|
30000011,
|
|
#BPMCHANGE 138.85
|
|
#SCROLL 0.96
|
|
12,
|
|
|
|
#BPMCHANGE 134.67
|
|
#SCROLL 0.99
|
|
10002011,
|
|
#BPMCHANGE 133.58
|
|
#SCROLL 1
|
|
21,
|
|
#BPMCHANGE 134.56
|
|
#SCROLL 0.99
|
|
11011100,
|
|
#MEASURE 2/4
|
|
#BPMCHANGE 130.65
|
|
#SCROLL 1.02
|
|
2202,
|
|
#MEASURE 4/4
|
|
#BPMCHANGE 126.63
|
|
#SCROLL 1.06
|
|
2, //83
|
|
|
|
#BPMCHANGE 142.32
|
|
#SCROLL 0.99
|
|
#GOGOSTART
|
|
1212,
|
|
#BPMCHANGE 140.80
|
|
#SCROLL 1
|
|
10110020,
|
|
#BPMCHANGE 140.92
|
|
10110020,
|
|
#BPMCHANGE 141.33
|
|
500008000000500008000000500008000000500008000000,
|
|
|
|
#BPMCHANGE 140.40
|
|
#SCROLL 1.01
|
|
1120,
|
|
#BPMCHANGE 142.87
|
|
#SCROLL 0.99
|
|
03000000,
|
|
#BPMCHANGE 141.95
|
|
#SCROLL 1
|
|
1013,
|
|
#GOGOEND
|
|
0,
|
|
0, //92
|
|
#END
|
|
|
|
|
|
COURSE:Easy
|
|
LEVEL:4
|
|
BALLOON:5,5,12
|
|
SCOREINIT:400
|
|
SCOREDIFF:125
|
|
|
|
#START
|
|
#SCROLL 1.02
|
|
#GOGOSTART
|
|
300000000000600000000000000000000008000000000000,
|
|
#BPMCHANGE 108.30
|
|
#SCROLL 0.98
|
|
600000000008000000000000300000000000300000000000,
|
|
#BPMCHANGE 104.40
|
|
#SCROLL 1.02
|
|
3033,
|
|
#BPMCHANGE 109.23
|
|
#SCROLL 0.97
|
|
7008,
|
|
|
|
#BPMCHANGE 105.07
|
|
#SCROLL 1.01
|
|
300000000000600000000000000000000008000000000000,
|
|
#MEASURE 15/16
|
|
#BPMCHANGE 106.92
|
|
#SCROLL 1
|
|
600000000008000000000000
|
|
#SCROLL 0.99
|
|
300000000000000000000,
|
|
#MEASURE 4/4
|
|
#BPMCHANGE 103.10
|
|
#SCROLL 1.03
|
|
3033,
|
|
#BPMCHANGE 108.71
|
|
#SCROLL 0.98
|
|
600000000000000000000000000008000000000000000000, //8
|
|
#GOGOEND
|
|
|
|
#BPMCHANGE 95.00
|
|
#SCROLL 1
|
|
2022,
|
|
11,
|
|
3,
|
|
3001,
|
|
|
|
1011,
|
|
12,
|
|
2022,
|
|
21, //16
|
|
|
|
1011,
|
|
1110,
|
|
1110,
|
|
2220,
|
|
|
|
1000000000100100,
|
|
1022,
|
|
2000000000100100,
|
|
#BPMCHANGE 94.54
|
|
1, //24
|
|
|
|
#MEASURE 6/4
|
|
#BPMCHANGE 99.09
|
|
#SCROLL 0.95
|
|
300000000003
|
|
#BPMCHANGE 86.62
|
|
#SCROLL 1.09
|
|
000000300000300000300000,
|
|
#MEASURE 4/4
|
|
#BPMCHANGE 83.65
|
|
#SCROLL 1.13
|
|
3330, //26
|
|
|
|
#MEASURE 5/8
|
|
#BPMCHANGE 150
|
|
#SCROLL 1
|
|
#GOGOSTART
|
|
3,
|
|
30030,
|
|
3,
|
|
3,
|
|
#MEASURE 3/4
|
|
33,
|
|
#BPMCHANGE 151.52
|
|
#SCROLL 0.98
|
|
33, //32
|
|
|
|
#MEASURE 5/8
|
|
#BPMCHANGE 150.07
|
|
#SCROLL 0.99
|
|
3,
|
|
10010,
|
|
#MEASURE 3/4
|
|
#BPMCHANGE 147.13
|
|
#SCROLL 1.01
|
|
33,
|
|
#BPMCHANGE 150.66
|
|
#SCROLL 0.99
|
|
34, //36
|
|
|
|
#MEASURE 5/8
|
|
#BPMCHANGE 150.66
|
|
10010,
|
|
#BPMCHANGE 150.06
|
|
10001,
|
|
#BPMCHANGE 149.92
|
|
#SCROLL 1
|
|
10001,
|
|
10001,
|
|
10020,
|
|
20003, //42
|
|
|
|
0,
|
|
#MEASURE 4/4
|
|
7008,
|
|
#GOGOEND
|
|
#BPMCHANGE 151.37
|
|
#SCROLL 0.99
|
|
4001, //45
|
|
|
|
#BPMCHANGE 150.40
|
|
1011,
|
|
1,
|
|
1022,
|
|
#BPMCHANGE 149.88
|
|
#SCROLL 1
|
|
2,
|
|
1011,
|
|
1,
|
|
#BPMCHANGE 150.92
|
|
#SCROLL 0.99
|
|
7,
|
|
#BPMCHANGE 149.53
|
|
#SCROLL 1
|
|
000000000000000000000000000000000008000000000000, //53
|
|
|
|
#BPMCHANGE 150
|
|
#SCROLL 1.2
|
|
#GOGOSTART
|
|
40030040,
|
|
03003040,
|
|
40030040,
|
|
03003040,
|
|
|
|
40030040,
|
|
03003040,
|
|
40030040,
|
|
03003040, //61
|
|
|
|
#MEASURE 3/4
|
|
330000,
|
|
#SCROLL 1.4
|
|
330000,
|
|
#SCROLL 1.6
|
|
330000,
|
|
#MEASURE 4/4
|
|
#BPMCHANGE 147.84
|
|
#SCROLL 1.8
|
|
40040400,
|
|
#MEASURE 3/4
|
|
#BPMCHANGE 147.31
|
|
0, //66
|
|
#GOGOEND
|
|
|
|
#MEASURE 4/4
|
|
#BPMCHANGE 134.45
|
|
#SCROLL 1
|
|
3,
|
|
#BPMCHANGE 136.00
|
|
#SCROLL 0.98
|
|
11,
|
|
#BPMCHANGE 132.52
|
|
#SCROLL 1.01
|
|
1110,
|
|
#BPMCHANGE 133.09
|
|
1110,
|
|
|
|
#BPMCHANGE 131.56
|
|
#SCROLL 1.02
|
|
31,
|
|
#BPMCHANGE 134.56
|
|
#SCROLL 0.99
|
|
1110,
|
|
#BPMCHANGE 135.56
|
|
32,
|
|
#BPMCHANGE 134.73
|
|
100000000000100000000000500000000008000000000000, //74
|
|
|
|
#BPMCHANGE 133.26
|
|
#SCROLL 1
|
|
31,
|
|
#BPMCHANGE 130.94
|
|
#SCROLL 1.02
|
|
1110,
|
|
#BPMCHANGE 132.41
|
|
#SCROLL 1.01
|
|
3001,
|
|
#BPMCHANGE 138.85
|
|
#SCROLL 0.96
|
|
12,
|
|
|
|
#BPMCHANGE 134.67
|
|
#SCROLL 0.99
|
|
1001,
|
|
#BPMCHANGE 133.58
|
|
#SCROLL 1
|
|
11,
|
|
#BPMCHANGE 134.56
|
|
#SCROLL 0.99
|
|
11001100,
|
|
#MEASURE 2/4
|
|
#BPMCHANGE 130.65
|
|
#SCROLL 1.02
|
|
2200,
|
|
#MEASURE 4/4
|
|
#BPMCHANGE 126.63
|
|
#SCROLL 1.06
|
|
4, //83
|
|
|
|
#BPMCHANGE 142.32
|
|
#SCROLL 0.99
|
|
#GOGOSTART
|
|
11,
|
|
#BPMCHANGE 140.80
|
|
#SCROLL 1
|
|
1100,
|
|
#BPMCHANGE 140.92
|
|
1102,
|
|
#BPMCHANGE 141.33
|
|
500008000000500008000000500008000000500008000000,
|
|
|
|
#BPMCHANGE 140.40
|
|
#SCROLL 1.01
|
|
1110,
|
|
#BPMCHANGE 142.87
|
|
#SCROLL 0.99
|
|
03000000,
|
|
#BPMCHANGE 141.95
|
|
#SCROLL 1
|
|
1003,
|
|
#GOGOEND
|
|
0,
|
|
0, //92
|
|
#END |