480 lines
4.8 KiB
Plaintext
480 lines
4.8 KiB
Plaintext
//TJADB Project
|
|
TITLE:My Last Stand
|
|
TITLEJA:My Last Stand
|
|
SUBTITLE:--Tekken 8
|
|
SUBTITLEJA:「鉄拳8」より
|
|
BPM:186
|
|
WAVE:My Last Stand.ogg
|
|
OFFSET:-1.063
|
|
DEMOSTART:71.176
|
|
|
|
COURSE:Oni
|
|
LEVEL:9
|
|
BALLOON:24
|
|
SCOREINIT:460,1370
|
|
SCOREDIFF:113
|
|
|
|
#START
|
|
10010010,
|
|
0100,
|
|
10010060,
|
|
0,
|
|
000000000000000000000000000008000000000000000000, //5
|
|
|
|
30022202,
|
|
02023303,
|
|
00022202,
|
|
000200000200000111100000,
|
|
|
|
1000102210201022,
|
|
1020102210201020,
|
|
1010101010101011,
|
|
1000221122112211, //13
|
|
|
|
#GOGOSTART
|
|
7,
|
|
00000008,
|
|
1010201201102011,
|
|
1010201112102011,
|
|
|
|
1010201201102011,
|
|
1010201112102011,
|
|
1010201201102000,
|
|
1110201112102222, //21
|
|
#GOGOEND
|
|
|
|
1000201012102010,
|
|
1010201102102011,
|
|
1010201012102010,
|
|
1010201102102010,
|
|
|
|
1110201110205000,
|
|
000000000000000000000008000000000000100000100000,
|
|
1110201110201110,
|
|
200000100100100000101010100000300000000000000000, //29
|
|
|
|
1000201012102010,
|
|
1010201112102010,
|
|
1010201012102010,
|
|
1010201112102010,
|
|
|
|
1110201110205000,
|
|
000000000000000000000008000000000000100000100000,
|
|
1110201110201110,
|
|
200000500000000000000000000008000000200200200000, //37
|
|
|
|
1110001110005000,
|
|
000000000000000000000008000000202020200000200000,
|
|
00220202,
|
|
02220200,
|
|
|
|
1110001110001110,
|
|
0022200000002000,
|
|
20220202,
|
|
0011202011201020, //45
|
|
|
|
1000100010001011,
|
|
1000102010201011,
|
|
1000100010201011,
|
|
10121211,
|
|
|
|
1110222011102220,
|
|
1110222011102220,
|
|
1111222211112222,
|
|
1122112211221122,
|
|
1000020000020000,
|
|
0022, //55
|
|
|
|
#GOGOSTART
|
|
1010201211102011,
|
|
1011201211102211,
|
|
1210201211112011,
|
|
1011201211102222,
|
|
|
|
1110201112112011,
|
|
1210221112102010,
|
|
1111112111112111,
|
|
1120002011112211, //63
|
|
|
|
1010201211102011,
|
|
1011201211102211,
|
|
1210201211112011,
|
|
1011201211102222,
|
|
|
|
1111201211112012,
|
|
1111201211112020,
|
|
100000202020200000200200100200100100200000100100,
|
|
100000400300000300111100, //71
|
|
|
|
1222202212202222,
|
|
1022222010220220,
|
|
1222202212202222,
|
|
1022222010202220,
|
|
|
|
1222221222221222,
|
|
2212222030303000,
|
|
1222221222221222,
|
|
2212222211221222, //79
|
|
#GOGOEND
|
|
|
|
1,
|
|
0,
|
|
0,
|
|
0,
|
|
0,
|
|
0, //85
|
|
#END
|
|
|
|
|
|
COURSE:Hard
|
|
LEVEL:6
|
|
BALLOON:20,12,12
|
|
SCOREINIT:760,2960
|
|
SCOREDIFF:205
|
|
|
|
#START
|
|
1001,
|
|
0100,
|
|
1006,
|
|
0,
|
|
000000000000000000000000000008000000000000000000, //5
|
|
|
|
30020202,
|
|
02003303,
|
|
00020202,
|
|
02020110,
|
|
|
|
1111,
|
|
1111,
|
|
11111110,
|
|
3222, //13
|
|
|
|
#GOGOSTART
|
|
9,
|
|
09,
|
|
8,
|
|
0,
|
|
|
|
10210120,
|
|
1000201110102000,
|
|
10210120,
|
|
10110000, //21
|
|
#GOGOEND
|
|
|
|
10201120,
|
|
11010120,
|
|
10201120,
|
|
11010120,
|
|
|
|
10210250,
|
|
000000000000000000000008000000000000100000000000,
|
|
10210210,
|
|
100000500000000000000000000008000000000000000000, //29
|
|
|
|
10201120,
|
|
11010120,
|
|
10201120,
|
|
11010120,
|
|
|
|
10210250,
|
|
000000000000000000000008000000000000100000000000,
|
|
10210210,
|
|
100000500000000000000000000008000000000000000000, //37
|
|
|
|
10010010,
|
|
00000022,
|
|
00220202,
|
|
02220200,
|
|
|
|
10010010,
|
|
0002,
|
|
20220202,
|
|
00220202, //45
|
|
|
|
10101011,
|
|
1111,
|
|
10101011,
|
|
10101011,
|
|
|
|
10101110,
|
|
10101110,
|
|
11101110,
|
|
1010101011101110,
|
|
3,
|
|
0022, //55
|
|
|
|
#GOGOSTART
|
|
10211120,
|
|
1000201110102000,
|
|
10211120,
|
|
1000200011102000,
|
|
|
|
1000201110102000,
|
|
11210121,
|
|
30330330,
|
|
33002020, //63
|
|
|
|
10211120,
|
|
1000201110102000,
|
|
1000201110102000,
|
|
1000200011102000,
|
|
|
|
11211021,
|
|
11211020,
|
|
7,
|
|
0800, //71
|
|
|
|
10011010,
|
|
11001020,
|
|
10011010,
|
|
11001020,
|
|
|
|
10211010,
|
|
11011210,
|
|
10211090,
|
|
0000000000090000, //79
|
|
#GOGOEND
|
|
|
|
8,
|
|
0,
|
|
0,
|
|
0,
|
|
0,
|
|
0, //85
|
|
#END
|
|
|
|
|
|
COURSE:Normal
|
|
LEVEL:6
|
|
BALLOON:14,8,8
|
|
SCOREINIT:950,4690
|
|
SCOREDIFF:315
|
|
|
|
#START
|
|
1001,
|
|
0,
|
|
1006,
|
|
0,
|
|
000000000000000000000000000008000000000000000000, //5
|
|
|
|
3,
|
|
00003303,
|
|
0,
|
|
0,
|
|
|
|
11,
|
|
11,
|
|
1111,
|
|
3, //13
|
|
|
|
#GOGOSTART
|
|
9,
|
|
09,
|
|
8,
|
|
0,
|
|
|
|
10200110,
|
|
10110110,
|
|
10200110,
|
|
10110000, //21
|
|
#GOGOEND
|
|
|
|
1210,
|
|
11010000,
|
|
1210,
|
|
11010010,
|
|
|
|
10110150,
|
|
000000000000000000000008000000000000100000000000,
|
|
10110110,
|
|
100000500000000000000000000008000000000000000000, //29
|
|
|
|
1210,
|
|
11010000,
|
|
1210,
|
|
11010010,
|
|
|
|
10110150,
|
|
000000000000000000000008000000000000100000000000,
|
|
10110110,
|
|
100000500000000000000000000008000000000000000000, //37
|
|
|
|
1001,
|
|
0002,
|
|
00000002,
|
|
00020000,
|
|
|
|
1001,
|
|
0,
|
|
20000002,
|
|
0, //45
|
|
|
|
1,
|
|
11,
|
|
1,
|
|
11,
|
|
|
|
1110,
|
|
1110,
|
|
1111,
|
|
10101110,
|
|
3,
|
|
0, //55
|
|
|
|
#GOGOSTART
|
|
10201110,
|
|
0211,
|
|
10201110,
|
|
0211,
|
|
|
|
10110110,
|
|
11020011,
|
|
30030030,
|
|
03001010, //63
|
|
|
|
10201110,
|
|
0211,
|
|
10201110,
|
|
0211,
|
|
|
|
10111011,
|
|
10111010,
|
|
7,
|
|
0800, //71
|
|
|
|
33,
|
|
33,
|
|
33,
|
|
33,
|
|
|
|
10010010,
|
|
01001110,
|
|
10110090,
|
|
0000000000090000, //79
|
|
#GOGOEND
|
|
|
|
8,
|
|
0,
|
|
0,
|
|
0,
|
|
0,
|
|
0, //85
|
|
#END
|
|
|
|
|
|
COURSE:Easy
|
|
LEVEL:4
|
|
BALLOON:11,7,7,11
|
|
SCOREINIT:1050,9170
|
|
SCOREDIFF:608
|
|
|
|
#START
|
|
1,
|
|
0,
|
|
1006,
|
|
0,
|
|
000000000000000000000000000008000000000000000000, //5
|
|
|
|
3,
|
|
00000003,
|
|
0,
|
|
0,
|
|
|
|
11,
|
|
11,
|
|
1110,
|
|
3, //13
|
|
|
|
#GOGOSTART
|
|
9,
|
|
09,
|
|
8,
|
|
0,
|
|
|
|
1101,
|
|
0100,
|
|
1101,
|
|
0100, //21
|
|
#GOGOEND
|
|
|
|
11,
|
|
1,
|
|
11,
|
|
1,
|
|
|
|
5,
|
|
000000000000000000000008000000000000000000000000,
|
|
5,
|
|
000000000000000000000008000000000000000000000000, //29
|
|
|
|
11,
|
|
1,
|
|
11,
|
|
1,
|
|
|
|
5,
|
|
000000000000000000000008000000000000000000000000,
|
|
5,
|
|
000000000000000000000000000008000000000000000000, //37
|
|
|
|
1001,
|
|
0,
|
|
00000002,
|
|
0,
|
|
|
|
1001,
|
|
0,
|
|
20000002,
|
|
0, //45
|
|
|
|
1,
|
|
1,
|
|
1,
|
|
1,
|
|
|
|
11,
|
|
11,
|
|
1110,
|
|
1111,
|
|
3,
|
|
0, //55
|
|
|
|
#GOGOSTART
|
|
1011,
|
|
02,
|
|
1011,
|
|
02,
|
|
|
|
10010010,
|
|
01000000,
|
|
7,
|
|
00080000, //63
|
|
|
|
1011,
|
|
02,
|
|
10010010,
|
|
02,
|
|
|
|
12,
|
|
12,
|
|
7,
|
|
0800, //71
|
|
|
|
33,
|
|
33,
|
|
33,
|
|
33,
|
|
|
|
10010010,
|
|
01001000,
|
|
9,
|
|
09, //79
|
|
#GOGOEND
|
|
|
|
8,
|
|
0,
|
|
0,
|
|
0,
|
|
0,
|
|
0, //85
|
|
#END |