Files
ESE/07 Game Music/Overmaster/Overmaster Old Chart.tja

559 lines
6.7 KiB
Plaintext

//TJADB Project
TITLE:Overmaster -Old Chart-
TITLEJA:オーバーマスター
SUBTITLE:--Koji Nakagawa feat. Project Fairy/THE iDOLM@STER SP
SUBTITLEJA:旧譜面 「アイドルマスター」より
BPM:178
WAVE:Overmaster.ogg
OFFSET:-4.145
DEMOSTART:56.455
SCENEPRESET:IMAS
//Difficulties based on PSPDX.
COURSE:Oni
LEVEL:7
BALLOON:13,12,12
SCOREINIT:500
SCOREDIFF:100
//8* in AC14, score 480/110/1650
#START
2000200010222010,
0011201011102000,
1022202220300030,
0011201011102000,
1011101110303030, //5
0010200010112010,
0010200010222010,
0010200010112010,
0010200010222010,
0010200011102010,
0010200011202010,
0010200011102010,
0040111040111030, //13
0010201120102000,
2011201020100010,
0010201120102000,
2011201020100010,
0010200030222030,
0030400030222030,
06000000,
000000000008000000000000400000300000000000000000, //21
10010122,
10210120,
7,
000000000008000000000000000000000000000000000000,
10010122,
10210120,
7,
80004303, //29
02210221,
0020200011102010,
02201221,
0020200011102000,
1010201110200010,
0010201110200000,
3022203000304030,
0022203000403040,
0022203000304030,
0000000021111010, //39
#GOGOSTART
0011201010112000,
#SCROLL 0.99
12210121,
0011201010112000,
#SCROLL 1
12210121,
0010200010222010,
0010200010222050,
000000000000000000000000000000000000000008000000,
0010221022111010, //47
0011201010112000,
1022201000102010,
0011201010112000,
#SCROLL 0.99
1022201000102010,
0010200010222010,
0010200010222050,
000000000000000000000000000000000008000000300000,
03300333, //55
#GOGOEND
0010201110002010,
0010200011102010,
0010200011102220,
2210221111100011,
2010102010200011,
21210121,
2210221110102010,
03300030,
0000300021111010, //64
00000002,
02020001,
0,
#SCROLL 1
#GOGOSTART
30304403,
0030400010112010,
0010200010112070,
00000008,
#GOGOEND
0000000022111010, //72
#GOGOSTART
0011201020112000,
1022201000102010,
0011201020112000,
1022201000102010,
0020200010212010,
0020200010212010,
0010201120111120,
30430303, //80
0010200022102010,
0010200022102010,
0010201120102010,
0010201120400040,
0010200022102010,
0010200022102010,
0010201120303030,
0022111020111050,
0,
000000000000000000000000000000000000000000000008,
#GOGOEND
0,
0,
0, //93
#END
COURSE:Hard
LEVEL:6
BALLOON:11,10,6,6,10,10,24
SCOREINIT:700
SCOREDIFF:130
//7* in AC14, score 750/140/2240
#START
2000200010111010,
01201120,
11211201,
01201120,
11111111, //5
01201120,
11201205,
000000000000000000000000000000000008000000000000,
00001021,
01201120,
11201201,
01201203,
00000001, //13
01202120,
21201205,
000000000000000000000000000000000000000000000008,
00001021,
01201203,
03300006,
0,
000000000008000000000000000000000000000000000000, //21
10220020,
10220020,
7,
000000000008000000000000000000000000000000000000,
10220020,
10220020,
7,
80001101, //29
01201001,
01200001,
01201003,
03030000,
10102200,
10102200,
70000807,
00008009,
00000908,
00000001, //39
#GOGOSTART
0010201110101000,
#SCROLL 0.99
10210121,
0010201110101000,
#SCROLL 1
10210303,
00001011,
00110105,
000000000000000000000000000000000000000000000008,
00000001, //47
0010201110101000,
10210121,
0010201110101000,
#SCROLL 0.99
10210303,
00001011,
00110106,
000000000000000000000000000008000000000000300000,
03300333, //55
#GOGOEND
0212,
02201020,
0020200011102220,
500000000000000000000000000008000000000000100000,
01102001,
01102000,
1110222011105000,
000000000008000000000000000000000000300000000000,
0000300020111010, //64
00000002,
02020002,
0,
#SCROLL 1
#GOGOSTART
40403303,
0010200010111010,
0010200010111070,
00000008,
#GOGOEND
00000001, //72
#GOGOSTART
0010201110102000,
10210221,
0010201110102000,
10210404,
00001011,
00110105,
000000000000000000000000000000000008000000000000,
30330309, //80
0,
00090008,
0,
00000404,
0010200020001110,
0010200020001110,
01202003,
03030306,
0,
000000000000000000000000000000000000000000000008,
#GOGOEND
0,
0,
0, //93
#END
COURSE:Normal
LEVEL:5
BALLOON:9,8,5,5,8,18
SCOREINIT:870
SCOREDIFF:170
//AC14 shinuchi: 2540
#START
20200001,
01101010,
10000001,
01101010,
10000001, //5
0110,
10201005,
000000000000000000000000000000000008000000000000,
00000001,
00201001,
00000001,
00201003,
00000001, //13
0220,
20102005,
000000000000000000000000000000000000000000000008,
00000001,
00202003,
00000006,
0,
000000000008000000000000000000000000000000000000, //21
10010020,
10010020,
7,
000000000008000000000000000000000000000000000000,
10010020,
10010020,
7,
80000001, //29
00201001,
0001,
00201003,
03030000,
1110,
2220,
70000807,
00008009,
00000908,
00000001, //39
#GOGOSTART
01101000,
#SCROLL 0.99
10102001,
01101000,
#SCROLL 1
10030303,
01,
10101005,
000000000000000000000000000000000000000000000008,
00000001, //47
01102000,
10102001,
01102000,
#SCROLL 0.99
10030303,
01,
10101006,
000000000000000000000000000000000000000000000008,
00000333, //55
#GOGOEND
0202,
02202000,
0202,
02202000,
1110,
1110,
2225,
000000000008000000000000000000000000000000000000,
00000002, //64
00000002,
02020002,
0,
#SCROLL 1
#GOGOSTART
40404003,
03,
30303006,
000000000000000000000000000000000000000000000008,
#GOGOEND
00000001, //72
#GOGOSTART
02201000,
10102001,
02201000,
10040404,
01,
10101005,
000000000000000000000000000000000008000000000000,
30030309, //80
0,
00090008,
0,
00000404,
00102001,
00102001,
00102003,
03030306,
0,
000000000000000000000000000000000000000000000008,
#GOGOEND
0,
0,
0, //93
#END
COURSE:Easy
LEVEL:4
BALLOON:8,7,20,15
SCOREINIT:660
SCOREDIFF:120
//5* in AC14, score 710/130/2000
#START
20200001,
0111,
10000001,
0111,
10000001, //5
0110,
10101005,
000000000000000000000000000000000008000000000000,
00000001,
00101001,
00000001,
00101003,
00000002, //13
0220,
20202005,
000000000000000000000000000000000000000000000008,
00000002,
00202004,
00000006,
0,
000000000008000000000000000000000000000000000000, //21
12,
1,
7,
000000000008000000000000000000000000000000000000,
12,
1,
7,
80000001, //29
00202005,
000000000000000000000008000000000000000000100000,
00202005,
000000000000000000000008000000000000000000000000,
11,
1110,
9,
0,
000000090000000000000000000000000000000008000000,
00000001, //39
#GOGOSTART
00111000,
#SCROLL 0.99
10002001,
00111000,
#SCROLL 1
1,
11,
10101005,
000000000000000000000000000000000000000000000008,
00000001, //47
00111000,
10002001,
00111000,
#SCROLL 0.99
1,
11,
10101006,
000000000000000000000000000000000000000000000008,
00000111, //55
#GOGOEND
0202,
0220,
0202,
0220,
11,
1110,
1115,
000000000008000000000000000000000000000000000000,
00000002, //64
00000002,
00000002,
0,
#SCROLL 1
#GOGOSTART
40404003,
03,
30303006,
000000000000000000000000000000000000000000000008,
#GOGOEND
00000001, //72
#GOGOSTART
00111000,
10002001,
00111000,
12,
11,
10101005,
000000000000000000000000000000000008000000000000,
30000009, //80
0,
00090008,
0,
00000001,
00101001,
00000001,
00101003,
03030306,
0,
000000000000000000000000000000000000000000000008,
#GOGOEND
0,
0,
0, //93
#END