681 lines
8.9 KiB
Plaintext
681 lines
8.9 KiB
Plaintext
//TJADB Project
|
|
TITLE:Overmaster -New Chart-
|
|
TITLEJA:オーバーマスター
|
|
SUBTITLE:--Koji Nakagawa feat. Project Fairy/THE iDOLM@STER SP
|
|
SUBTITLEJA:新譜面 「アイドルマスター」より
|
|
BPM:178
|
|
WAVE:Overmaster.ogg
|
|
OFFSET:-4.145
|
|
DEMOSTART:56.455
|
|
SCENEPRESET:IMAS
|
|
|
|
//VitaMS Chart
|
|
|
|
COURSE:Edit
|
|
LEVEL:9
|
|
BALLOON:
|
|
SCOREINIT:410,1230
|
|
SCOREDIFF:103
|
|
|
|
#START
|
|
2000200010112030,
|
|
|
|
0011202211102022,
|
|
1110112011202030,
|
|
0011202211102022,
|
|
1210101012102030, //5
|
|
|
|
0010221010102012,
|
|
1010221010112030,
|
|
0010221010102012,
|
|
1010221022112030,
|
|
|
|
0010110220102012,
|
|
1010110220112030,
|
|
0010110220221220,
|
|
0022111122112030, //13
|
|
|
|
0010221010102012,
|
|
1010221010112030,
|
|
0010221010102012,
|
|
1010221022112030,
|
|
|
|
0010110220102030,
|
|
0010101120101040,
|
|
0010202210102010,
|
|
2210201120302222, //21
|
|
|
|
10210020,
|
|
30330020,
|
|
10210020,
|
|
01011020,
|
|
|
|
10210020,
|
|
10210030,
|
|
33201120,
|
|
2211221120100010, //29
|
|
|
|
0022201010404040,
|
|
0010201012102010,
|
|
0010201011202010,
|
|
0010201210102000,
|
|
|
|
1010201210122010,
|
|
0010201120203000,
|
|
1112221000101211,
|
|
1222221000101211,
|
|
1222221000303030,
|
|
0000000022222210, //39
|
|
|
|
#GOGOSTART
|
|
0010201121102012,
|
|
#SCROLL 0.99
|
|
1012201022022010,
|
|
0010201222102012,
|
|
#SCROLL 1
|
|
1012201222122210,
|
|
|
|
0010201210012012,
|
|
2210201220122210,
|
|
0010200010102011,
|
|
2211211122122010, //47
|
|
|
|
0010201121102012,
|
|
1012201022022010,
|
|
0010201210102012,
|
|
#SCROLL 0.99
|
|
1012201220122210,
|
|
|
|
0010201210102012,
|
|
2210201222122210,
|
|
0010101012212210,
|
|
03300444, //55
|
|
#GOGOEND
|
|
|
|
0010212010102012,
|
|
1010202211102010,
|
|
0010200011221122,
|
|
2212112111200012,
|
|
|
|
2210201020102010,
|
|
0010201000102021,
|
|
2211221112112210,
|
|
03300030,
|
|
0000300022111010, //64
|
|
|
|
00000002,
|
|
02020001,
|
|
0,
|
|
#SCROLL 1
|
|
#GOGOSTART
|
|
30304403,
|
|
|
|
0010201210012012,
|
|
2210201222122210,
|
|
0010200010102021,
|
|
#GOGOEND
|
|
2112212211111010, //72
|
|
|
|
#GOGOSTART
|
|
0010201121102012,
|
|
1012201022022010,
|
|
0010201222102012,
|
|
1012201222122210,
|
|
|
|
0010201210102012,
|
|
2210201222122210,
|
|
0010101022121211,
|
|
10330404, //80
|
|
|
|
01201121,
|
|
01202121,
|
|
01201221,
|
|
01201404,
|
|
|
|
01210121,
|
|
0010201011102010,
|
|
01222333,
|
|
0022111020100050, //88
|
|
|
|
0,
|
|
000000000000000000000000000000000000000000000008,
|
|
#GOGOEND
|
|
0,
|
|
0, //92
|
|
#END
|
|
|
|
|
|
COURSE:Oni
|
|
LEVEL:8
|
|
BALLOON:13,12,12
|
|
SCOREINIT:530,1560
|
|
SCOREDIFF:128
|
|
|
|
#START
|
|
2000200010222010,
|
|
|
|
0011201011102000,
|
|
1022202220300030,
|
|
0011201011102000,
|
|
1011101110303030, //5
|
|
|
|
0010200010112010,
|
|
0010200010222010,
|
|
0010200010112010,
|
|
0010200010222010,
|
|
|
|
0010200011102010,
|
|
0010200011202010,
|
|
0010200011102010,
|
|
0040111040111030, //13
|
|
|
|
0010201120102000,
|
|
2011201020100010,
|
|
0010201120102000,
|
|
2011201020100010,
|
|
|
|
0010200030222030,
|
|
0030400030222030,
|
|
06000000,
|
|
000000000008000000000000400000300000000000000000, //21
|
|
|
|
10010122,
|
|
10210120,
|
|
7,
|
|
000000000008000000000000000000000000000000000000,
|
|
|
|
10010122,
|
|
10210120,
|
|
7,
|
|
80004303, //29
|
|
|
|
02210221,
|
|
0020200011102010,
|
|
02201221,
|
|
0020200011102000,
|
|
|
|
1010201110200010,
|
|
0010201110200000,
|
|
3022203000304030,
|
|
0022203000403040,
|
|
0022203000304030,
|
|
0000000021111010, //39
|
|
|
|
#GOGOSTART
|
|
0011201010112000,
|
|
#SCROLL 0.99
|
|
12210121,
|
|
0011201010112000,
|
|
#SCROLL 1
|
|
12210121,
|
|
|
|
0010200010222010,
|
|
0010200010222050,
|
|
000000000000000000000000000000000000000008000000,
|
|
0010221022111010, //47
|
|
|
|
0011201010112000,
|
|
1022201000102010,
|
|
0011201010112000,
|
|
#SCROLL 0.99
|
|
1022201000102010,
|
|
|
|
0010200010222010,
|
|
0010200010222050,
|
|
000000000000000000000000000000000008000000300000,
|
|
03300333, //55
|
|
#GOGOEND
|
|
|
|
0010201110002010,
|
|
0010200011102010,
|
|
0010200011102220,
|
|
2210221111100011,
|
|
|
|
2010102010200011,
|
|
21210121,
|
|
2210221110102010,
|
|
03300030,
|
|
0000300021111010, //64
|
|
|
|
00000002,
|
|
02020001,
|
|
0,
|
|
#SCROLL 1
|
|
#GOGOSTART
|
|
30304403,
|
|
|
|
0030400010112010,
|
|
0010200010112070,
|
|
00000008,
|
|
#GOGOEND
|
|
0000000022111010, //72
|
|
|
|
#GOGOSTART
|
|
0011201020112000,
|
|
1022201000102010,
|
|
0011201020112000,
|
|
1022201000102010,
|
|
|
|
0020200010212010,
|
|
0020200010212010,
|
|
0010201120111120,
|
|
30430303, //80
|
|
|
|
0010200022102010,
|
|
0010200022102010,
|
|
0010201120102010,
|
|
0010201120400040,
|
|
|
|
0010200022102010,
|
|
0010200022102010,
|
|
0010201120303030,
|
|
0022111020111050,
|
|
|
|
0,
|
|
000000000000000000000000000000000000000000000008,
|
|
#GOGOEND
|
|
0,
|
|
0, //92
|
|
#END
|
|
|
|
|
|
COURSE:Hard
|
|
LEVEL:7
|
|
BALLOON:6,6,10,10,24
|
|
SCOREINIT:630,2270
|
|
SCOREDIFF:153
|
|
|
|
#START
|
|
2000200010111010,
|
|
|
|
01201120,
|
|
1010201010222010,
|
|
01201120,
|
|
11111111, //5
|
|
|
|
01210121,
|
|
01210125,
|
|
000000000000000000000000000000000008000000000000,
|
|
00001121,
|
|
|
|
01201121,
|
|
01201121,
|
|
01210123,
|
|
00000001, //13
|
|
|
|
01210121,
|
|
01210125,
|
|
000000000000000000000000000000000000000000000008,
|
|
00001121,
|
|
|
|
01201203,
|
|
03300006,
|
|
0,
|
|
000000000008000000000000000000000000000000000000, //21
|
|
|
|
10220020,
|
|
30440020,
|
|
10110020,
|
|
10110020,
|
|
|
|
10220020,
|
|
10220040,
|
|
33010120,
|
|
2220202010111010, //29
|
|
|
|
01210343,
|
|
01201121,
|
|
01201121,
|
|
0011103000102000,
|
|
|
|
10201121,
|
|
02101220,
|
|
70000807,
|
|
00008009,
|
|
00000908,
|
|
00000001, //39
|
|
|
|
#GOGOSTART
|
|
0010201110102000,
|
|
#SCROLL 0.99
|
|
11210121,
|
|
0010201110102000,
|
|
#SCROLL 1
|
|
10210303,
|
|
|
|
00001021,
|
|
01210125,
|
|
000000000000000000000000000000000000000000000008,
|
|
00000001, //47
|
|
|
|
0010201110102000,
|
|
11210121,
|
|
0010201110102000,
|
|
#SCROLL 0.99
|
|
10210303,
|
|
|
|
00001021,
|
|
01210126,
|
|
000000000000000000000000000008000000000000300000,
|
|
03300333, //55
|
|
#GOGOEND
|
|
|
|
0212,
|
|
02201020,
|
|
0020200011102220,
|
|
500000000000000000000000000008000000200200200000,
|
|
|
|
01102021,
|
|
01120222,
|
|
1110222011105000,
|
|
000000000008000000000000000000000000300000000000,
|
|
0000300020111010, //64
|
|
|
|
00000002,
|
|
02020002,
|
|
0,
|
|
#SCROLL 1
|
|
#GOGOSTART
|
|
40403303,
|
|
|
|
0010200010111010,
|
|
0010201000111070,
|
|
00000008,
|
|
#GOGOEND
|
|
000000000000000000000000000000000000000000100000, //72
|
|
|
|
#GOGOSTART
|
|
0010201110102000,
|
|
11210221,
|
|
0010201110102000,
|
|
10210404,
|
|
|
|
00001021,
|
|
01210125,
|
|
000000000000000000000000000000000008000000000000,
|
|
30330309, //80
|
|
|
|
0,
|
|
000000000009000000000000,
|
|
8,
|
|
00000404,
|
|
|
|
0010200020001110,
|
|
0010200020001110,
|
|
01122223,
|
|
03030306,
|
|
|
|
0,
|
|
000000000000000000000000000000000000000000000008,
|
|
#GOGOEND
|
|
0,
|
|
0, //92
|
|
#END
|
|
|
|
|
|
COURSE:Normal
|
|
LEVEL:6
|
|
BALLOON:7,13
|
|
SCOREINIT:910,4270
|
|
SCOREDIFF:298
|
|
|
|
#START
|
|
0,
|
|
|
|
0303,
|
|
0303,
|
|
0303,
|
|
0303, //5
|
|
|
|
0101,
|
|
0111,
|
|
0101,
|
|
0111,
|
|
|
|
0111,
|
|
0111,
|
|
00101013,
|
|
0, //13
|
|
|
|
0202,
|
|
0222,
|
|
0202,
|
|
0222,
|
|
|
|
00202003,
|
|
00303037,
|
|
0008,
|
|
10101100, //21
|
|
|
|
10110020,
|
|
30330020,
|
|
10110020,
|
|
10110020,
|
|
|
|
10110020,
|
|
10110040,
|
|
33010020,
|
|
10101101, //29
|
|
|
|
00100333,
|
|
0101,
|
|
0202,
|
|
0202,
|
|
|
|
00101100,
|
|
00101100,
|
|
500000000000000000000008000000000000000000500000,
|
|
000000000000000000000008000000000000000000500000,
|
|
000000000000000000000008000000000000000000200000,
|
|
00000001, //39
|
|
|
|
#GOGOSTART
|
|
01101000,
|
|
#SCROLL 0.99
|
|
11010001,
|
|
01101000,
|
|
#SCROLL 1
|
|
10110103,
|
|
|
|
05,
|
|
0,
|
|
000000000000000000000000000000000000000008000000,
|
|
00000001, //47
|
|
|
|
01101000,
|
|
11010001,
|
|
01101000,
|
|
#SCROLL 0.99
|
|
10110103,
|
|
|
|
05,
|
|
0,
|
|
000000000000000000000000000000000000000008000000,
|
|
00000333, //55
|
|
#GOGOEND
|
|
|
|
0202,
|
|
0202,
|
|
0303,
|
|
0303,
|
|
|
|
0404,
|
|
0404,
|
|
0303,
|
|
0,
|
|
00000002, //64
|
|
|
|
00000002,
|
|
00000002,
|
|
0,
|
|
#SCROLL 1
|
|
#GOGOSTART
|
|
10101103,
|
|
|
|
05,
|
|
0,
|
|
000000000000000000000000000000000000000008000000,
|
|
#GOGOEND
|
|
00000001, //72
|
|
|
|
#GOGOSTART
|
|
01101000,
|
|
11010001,
|
|
01101000,
|
|
10110103,
|
|
|
|
05,
|
|
0,
|
|
000000000000000000000000000000000008000000000000,
|
|
30000009, //80
|
|
|
|
0,
|
|
000000000009000000000000,
|
|
8,
|
|
00000303,
|
|
|
|
0,
|
|
0,
|
|
00000003,
|
|
03030306,
|
|
|
|
0,
|
|
000000000000000000000000000000000000000000000008,
|
|
#GOGOEND
|
|
0,
|
|
0, //92
|
|
#END
|
|
|
|
|
|
COURSE:Easy
|
|
LEVEL:4
|
|
BALLOON:5,13
|
|
SCOREINIT:680,5750
|
|
SCOREDIFF:225
|
|
|
|
#START
|
|
0,
|
|
|
|
0303,
|
|
0303,
|
|
0303,
|
|
0303, //5
|
|
|
|
0101,
|
|
0111,
|
|
0101,
|
|
0101,
|
|
|
|
0111,
|
|
0101,
|
|
00101003,
|
|
0, //13
|
|
|
|
0202,
|
|
0222,
|
|
0202,
|
|
0222,
|
|
|
|
00202003,
|
|
00000007,
|
|
0008,
|
|
1111, //21
|
|
|
|
500000000000000000000008000000000000200000000000,
|
|
600000000000000000000008000000000000200000000000,
|
|
500000000000000000000008000000000000200000000000,
|
|
500000000000000000000008000000000000200000000000,
|
|
|
|
500000000000000000000008000000000000200000000000,
|
|
500000000000000000000008000000000000400000000000,
|
|
600000000000000000000008000000000000200000000000,
|
|
1110, //29
|
|
|
|
0103,
|
|
0101,
|
|
0202,
|
|
0202,
|
|
|
|
0101,
|
|
0101,
|
|
500000000000000000000008000000000000000000500000,
|
|
000000000000000000000008000000000000000000500000,
|
|
000000000000000000000008000000000000000000200000,
|
|
00000001, //39
|
|
|
|
#GOGOSTART
|
|
0110,
|
|
#SCROLL 0.99
|
|
10010001,
|
|
0110,
|
|
#SCROLL 1
|
|
10010101,
|
|
|
|
05,
|
|
0,
|
|
000000000000000000000000000000000000000008000000,
|
|
00000001, //47
|
|
|
|
0110,
|
|
10010001,
|
|
0110,
|
|
#SCROLL 0.99
|
|
10010101,
|
|
|
|
05,
|
|
0,
|
|
000000000000000000000000000000000000000008000000,
|
|
00000333, //55
|
|
#GOGOEND
|
|
|
|
0202,
|
|
0202,
|
|
0303,
|
|
0303,
|
|
|
|
0404,
|
|
0404,
|
|
0303,
|
|
0,
|
|
00000002, //64
|
|
|
|
00000002,
|
|
00000002,
|
|
0,
|
|
#SCROLL 1
|
|
#GOGOSTART
|
|
10101003,
|
|
|
|
05,
|
|
0,
|
|
000000000000000000000000000000000000000008000000,
|
|
#GOGOEND
|
|
00000001, //72
|
|
|
|
#GOGOSTART
|
|
0110,
|
|
10010001,
|
|
0110,
|
|
10010101,
|
|
|
|
05,
|
|
0,
|
|
000000000000000000000000000000000008000000000000,
|
|
30000009, //80
|
|
|
|
0,
|
|
000000000009000000000000,
|
|
8,
|
|
00000303,
|
|
|
|
0,
|
|
0,
|
|
00000003,
|
|
03030306,
|
|
|
|
0,
|
|
000000000000000000000000000000000000000000000008,
|
|
#GOGOEND
|
|
0,
|
|
0, //92
|
|
#END |