Files
2025-06-01 22:15:31 -04:00

353 lines
11 KiB
Plaintext

//TJADB Project
TITLE:Overture Ⅷ
TITLEJA:ドラゴンクエストⅧ 序曲
SUBTITLE:--Koichi Sugiyama/Dragon Quest Ⅷ: Journey of the Cursed King
BPM:84.63
WAVE:Overture VIII.ogg
OFFSET:-2.858
DEMOSTART:21.512
COURSE:Oni
LEVEL:4
SCOREINIT:1100
SCOREDIFF:360
#START
000000000000100000000000100000000000100000000000,
#BPMCHANGE 85.33
100000000000000000000000000000000000000000000000,
#BPMCHANGE 84.44
000000000000100000000000100000000000100000000000,
#BPMCHANGE 89.78
100000000000000000000000000000000000000000000000,
100000000000000000000000000000000000000000000000,
#BPMCHANGE 85.95
100000000000000000000000000000000000000000000000,
#BPMCHANGE 81.98
500000000000000008000000
#BPMCHANGE 99.89
100000000000200000000000,
#BPMCHANGE 122
100000000000100000000000100000000000200000000000,
100000000000100000000000000000000000100000000100,
100000000000000000100000000000100000100000200000,
100000000000100000000000000000000000200000000200,
200000000000200000000000100000000000100000000000,
100000100000200000200000100000100000100000100000,
200000000000000000000000000000100000100000200000,
100000000000100000000000100000000000100000000000,
#GOGOSTART
500000000000000000000008000000100000200000200000,
100000100000200000200000100000100000200000100000,
500000000000000000000008000000100000200000200000,
100000100000200000200000100000100000200000100000,
500000000000000000000008000000200000100000100000,
100000100000100000200000100000100000100000200000,
100000000000000000000000100000000000000000000000,
500000000000000000000008000000000000100000000000,
#GOGOEND
100010001000200000002000100010001000200000002000,
100000000000100000000000100010001000100000000000,
100000000000000000100000000000000000000000000000,
100010001000200020002000100010001000100000000000,
100010001000200000002000100010001000200000002000,
100010001000100000000000100010001000100000000000,
100000000000000000000000000000100000100000200000,
100000000000100000000000100000000000100000000000,
#GOGOSTART
500000000000000000000008000000100000200000200000,
100010002000100010002000100000000000200000000000,
500000000000000000000008000000100000200000200000,
100010002000100010002000100000000000200000000000,
500000000000000000000008000000200000100000100000,
100020001000200010002000100000100000200000200000,
300000000000000000000000300000000000000000000000,
#MEASURE 8/4
#BPMCHANGE 119.62
500000000000000000000008000000000000000000000000
#GOGOEND
#BPMCHANGE 68.58
000000000000200000000000000000000000200000000000,
#MEASURE 4/4
#BPMCHANGE 65.24
200000000000200000000000000000000000000000000000,
#MEASURE 7/4
#BPMCHANGE 65.2
100000000000100000000000
#BPMCHANGE 72
100000000000200000100000100000200000100000100000200000200000,
#MEASURE 4/4
#BPMCHANGE 71
100000000000000000000000100000000000000000000000,
000000500000000000000000000000000000000000000000,
000000000000000000000000000000000008000000000000,
#END
COURSE:Hard
LEVEL:3
SCOREINIT:1020
SCOREDIFF:400
#START
000000000000100000000000100000000000100000000000,
#BPMCHANGE 85.33
100000000000000000000000000000000000000000000000,
#BPMCHANGE 84.44
000000000000100000000000100000000000100000000000,
#BPMCHANGE 89.78
100000000000000000000000000000000000000000000000,
100000000000000000000000000000000000000000000000,
#BPMCHANGE 85.95
100000000000000000000000000000000000000000000000,
#BPMCHANGE 81.98
500000000000800000000000
#BPMCHANGE 99.89
100000000000200000000000,
#BPMCHANGE 122
100000000000100000000000100000000000200000000000,
100000000000100000000000000000000000100000000100,
100000000000000000100000000000100000100000200000,
100000000000100000000000000000000000200000000200,
200000000000200000000000100000000000100000000000,
100000100000200000200000100000100000100000100000,
200000000000000000000000000000100000100000200000,
100000000000100000000000100000000000100000000000,
#GOGOSTART
500000000000000000800000000000100000200000200000,
100000000000000000000000100000000000200000000000,
500000000000000000800000000000100000200000200000,
100000000000000000000000100000000000200000000000,
500000000000000000800000000000100000100000200000,
200000000000000000000000000000100000200000200000,
100000000000000000000000100000000000000000000000,
500000000000000000800000000000000000000000000000,
#GOGOEND
100000000000100010001000100000000000200000000000,
100000000000100010001000100000000000200000000000,
100000000000000000100000000000100000100000200000,
100000000000100010001000100000000000000000000000,
200000000000200020002000200000000000200000000000,
100000000000100010001000100000100000100000200000,
200000000000000000000000000000100000100000200000,
100000000000100000000000100000000000100000000000,
#GOGOSTART
500000000000000000800000000000100000200000200000,
100000000000000000000000100000000000200000000000,
500000000000000000800000000000100000200000200000,
100000000000000000000000100000000000200000000000,
500000000000000000800000000000100000100000200000,
200000000000000000000000000000200000200000200000,
100000000000000000000000100000000000000000000000,
#BPMCHANGE 119.62
500000000000000000800000000000000000000000000000,
#GOGOEND
#BARLINEOFF
#BPMCHANGE 68.58
000000000000200000000000000000000000200000000000,
#BARLINEOFF
#BPMCHANGE 65.24
200000000000200000000000000000000000000000000000,
#MEASURE 3/4
#BPMCHANGE 66.89
100000000000100000000000100000000000,
#MEASURE 4/4
#BARLINEOFF
#BPMCHANGE 77.64
200000100000100000200000100000100000200000200000,
#BARLINEON
#BPMCHANGE 70.98
100000000000000000000000100000000000000000000000,
000000500000000000000000000000000000000000000000,
000000000000000000000000000000800000000000000000,
#END
COURSE:Normal
LEVEL:3
BALLOON:12
SCOREINIT:1010
SCOREDIFF:340
#START
000000000000100000000000100000000000100000000000,
#BPMCHANGE 85.33
100000000000000000000000000000000000000000000000,
#BPMCHANGE 84.44
000000000000100000000000100000000000100000000000,
#BPMCHANGE 89.78
100000000000000000000000000000000000000000000000,
100000000000000000000000000000000000000000000000,
#BPMCHANGE 85.95
100000000000000000000000000000000000000000000000,
#BPMCHANGE 81.98
500000000000800000000000
#BPMCHANGE 99.89
100000000000200000000000,
#BPMCHANGE 122
100000000000100000000000100000000000100000000000,
100000000000100000000000000000000000100000000100,
100000000000000000100000000000100000100000100000,
100000000000100000000000000000000000200000000200,
200000000000200000000000200000000000200000000000,
200000000000000000000000000000200000200000200000,
200000000000000000000000000000100000100000100000,
100000000000100000000000100000000000100000000000,
#GOGOSTART
500000000000800000000000000000100000100000100000,
100000000000000000000000100000000000100000000000,
500000000000800000000000000000100000100000100000,
100000000000000000000000100000000000000000000000,
500000000000800000000000000000200000200000200000,
200000000000000000000000000000100000100000100000,
100000000000000000000000100000000000000000000000,
500000000000000000000800000000000000100000000100,
#GOGOEND
100000000000100000000000100000000000100000000000,
100000000000100000000000000000000000100000000100,
100000000000000000100000000000100000100000100000,
100000000000100000000000000000000000200000000200,
200000000000200000000000200000000000200000000000,
200000000000000000000000000000100000100000100000,
100000000000000000000000000000100000100000100000,
100000000000100000000000100000000000100000000000,
#GOGOSTART
500000000000800000000000000000100000100000100000,
100000000000000000000000100000000000200000000000,
500000000000800000000000000000100000100000100000,
100000000000000000000000100000000000200000000000,
500000000000800000000000000000200000200000200000,
200000000000000000000000000000100000100000100000,
100000000000000000000000100000000000000000000000,
#BPMCHANGE 119.62
500000000000000000800000000000000000000000000000,
#GOGOEND
#BARLINEOFF
#BPMCHANGE 68.58
000000000000200000000000000000000000200000000000,
#BPMCHANGE 65.24
#BARLINEON
200000000000200000000000000000000000000000000000,
#MEASURE 3/4
#BPMCHANGE 66.89
100000000000100000000000100000000000,
#MEASURE 4/4
#BARLINEOFF
#BPMCHANGE 77.64
700000000000000000000000000000800000000000000000,
#BARLINEON
#BPMCHANGE 70.98
300000000000000000000000300000000000000000000000,
000000500000000000000000000000000000000000000000,
000000000000000000000000000000800000000000000000,
#END
COURSE:Easy
LEVEL:3
BALLOON:6,6
SCOREINIT:1100
SCOREDIFF:600
#START
000000000000100000000000100000000000100000000000,
#BPMCHANGE 85.33
100000000000000000000000000000000000000000000000,
#BPMCHANGE 84.44
000000000000100000000000100000000000100000000000,
#BPMCHANGE 89.78
100000000000000000000000000000000000000000000000,
100000000000000000000000000000000000000000000000,
#BPMCHANGE 85.95
100000000000000000000000000000000000000000000000,
#BPMCHANGE 81.98
500000000000800000000000
#BPMCHANGE 99.89
100000000000200000000000,
#BPMCHANGE 122
100000000000100000000000100000000000100000000000,
100000000000000000000000000000000000000000000000,
100000000000000000000000000000000000000000000000,
100000000000100000000000000000000000000000000000,
100000000000100000000000100000000000100000000000,
100000000000000000000000000000000000000000000000,
100000000000000000000000000000000000000000000000,
100000000000100000000000100000000000100000000000,
#GOGOSTART
100000000000000000000000000000000000000000000000,
200000000000000000000000100000000000100000000000,
100000000000000000000000000000000000000000000000,
200000000000000000000000100000000000100000000000,
100000000000000000000000000000000000000000000000,
700000000000000000000000800000000000000000000000,
300000000000000000000000300000000000000000000000,
500000000000000000800000000000000000000000000000,
#GOGOEND
100000000000100000000000100000000000100000000000,
100000000000000000000000000000000000000000000000,
100000000000000000000000200000000000000000000000,
100000000000100000000000000000000000000000000000,
100000000000100000000000100000000000100000000000,
100000000000000000000000000000000000000000000000,
100000000000000000000000200000000000000000000000,
100000000000100000000000100000000000100000000000,
#GOGOSTART
100000000000000000000000000000000000000000000000,
200000000000000000000000100000000000100000000000,
100000000000000000000000000000000000000000000000,
200000000000000000000000100000000000100000000000,
100000000000000000000000000000000000000000000000,
700000000000000000000000800000000000000000000000,
300000000000000000000000300000000000000000000000,
#BPMCHANGE 119.62
500000000000000000800000000000000000000000000000,
#GOGOEND
#BARLINEOFF
#BPMCHANGE 68.58
000000000000000000000000000000000000000000000000,
#BPMCHANGE 65.24
#BARLINEON
000000000000000000000000000000000000000000000000,
#BPMCHANGE 66.89
#MEASURE 3/4
100000000000100000000000100000000000,
#BPMCHANGE 77.64
#BARLINEOFF
#MEASURE 4/4
100000000000000000000000000000000000000000000000,
#BPMCHANGE 70.98
#BARLINEON
100000000000000000000000100000000000000000000000,
000000500000000000000000000000000000000000000000,
000000000000000000000000000000800000000000000000,
#END