Files

608 lines
12 KiB
Plaintext
Raw Permalink Blame History

This file contains ambiguous Unicode characters
This file contains Unicode characters that might be confused with other characters. If you think that this is intentional, you can safely ignore this warning. Use the Escape button to reveal them.
//TJADB Project
TITLE:Overture Ⅹ -Short Version-
TITLEJA:序曲 ドラゴンクエストXより -Short Version-
SUBTITLE:--Koichi Suguyama/Dragon Quest Ⅹ
BPM:86.95
WAVE:Overture X Short Version.ogg
OFFSET:-3.031
DEMOSTART:26.428
COURSE:Oni
LEVEL:5
BALLOON:23
SCOREINIT:1870
SCOREDIFF:560
#START
500000000000000000000000000000000000000008000000,
#MEASURE 2/4
#BPMCHANGE 87.81
000000000000000000000000,
#MEASURE 5/4
#BPMCHANGE 87.16
#SCROLL 1.01
100000000000000000000000100000000000000000000000
#BPMCHANGE 88.15
#SCROLL 1
000000000000,
#MEASURE 4/4
#BPMCHANGE 87.13
#SCROLL 1.01
000000000000000000101010100000000000000000101010,
#MEASURE 2/4
#BPMCHANGE 88.63
#SCROLL 0.99
100000000000000000000000,
#MEASURE 4/4
#BPMCHANGE 86.67
#SCROLL 1.01
100000000000000000000000000000000000000000101010,
#BPMCHANGE 89.15
#SCROLL 0.99
100000000000000000101010100000000000000000000000,
#MEASURE 2/4
#BPMCHANGE 87.13
#SCROLL 1.01
000000000000000000000000,
#MEASURE 4/4
#BPMCHANGE 86.13
#SCROLL 1.02
500000000000000000000000000000000000000000000008,
#MEASURE 2/4
#BPMCHANGE 81.23
#SCROLL 1.08
000000000000300000000000,
#BPMCHANGE 97.86
#SCROLL 0.9
300000000000200000000000,
#GOGOSTART
#MEASURE 4/4
#BPMCHANGE 126.43
#SCROLL 0.96
100000000100200000000000100000000100200000000000,
#BPMCHANGE 121.1
#SCROLL 1
100000000000100100100000100100100000100000100000,
#BPMCHANGE 122.37
#SCROLL 0.99
100000000100200000000000100000000100200000000000,
#BPMCHANGE 120.62
#SCROLL 1
100000000000100000000000100100100000100000000100,
#BPMCHANGE 123.97
#SCROLL 0.98
100000000000200000000000100000000100200000000000,
#BPMCHANGE 121.32
#SCROLL 1
100000100000200000200000100100100000100000100000,
#BPMCHANGE 121.76
100000000000200000000000100000100100100000200000,
#BPMCHANGE 121.09
100000100000100100100000100100100000100000100000,
#BPMCHANGE 121.78
500000000000000000000080000000100000200000200000,
#BPMCHANGE 120.07
#SCROLL 1.01
100000100000200200200000100000100000200000100000,
#BPMCHANGE 121.18
#SCROLL 0.99
500000000000000000000008000000100000200000200000,
#BPMCHANGE 120.01
#SCROLL 1.01
100000100000200200200000100000100000200000100000,
#BPMCHANGE 120.56
#SCROLL 1
500000000000000000000008000000200000100000100000,
#BPMCHANGE 119.54
#SCROLL 1.01
100000100000200200200000100000100100100000200000,
#BPMCHANGE 117.29
#SCROLL 1.03
300000000000400000000000300000000000400000000000,
#MEASURE 5/4
#BPMCHANGE 118.8
#SCROLL 1.02
600000000000000000000008
#GOGOEND
#BPMCHANGE 168.86
#SCROLL 0.72
000000000000000000000000
#BPMCHANGE 63.38
#SCROLL 1.91
000000000000,
#MEASURE 2/4
#BPMCHANGE 67.45
#SCROLL 1.8
200000000000000000000000,
#BPMCHANGE 63.8
#SCROLL 1.9
200000000000200000000000,
#MEASURE 5/4
#BPMCHANGE 71.12
#SCROLL 1.7
200000000000000000000000000000000000
#BPMCHANGE 67.89
#SCROLL 1.78
100000000000
#BPMCHANGE 69.25
#SCROLL 1.75
100000000000,
#MEASURE 1/4
#BPMCHANGE 65.42
#SCROLL 1.85
100000000000,
#MEASURE 6/4
#BPMCHANGE 68.2
#SCROLL 1.78
500000000000000000000000000000000008000000000000
#BPMCHANGE 63.65
#SCROLL 1.9
300000000000000000000000,
#MEASURE 2/4
#BPMCHANGE 46.61
#SCROLL 2.6
300000000000000000000000,
#MEASURE 4/4
#BPMCHANGE 64
#SCROLL 1.89
700000000000000000000000000000000000000000000000,
000000000000000000000000800000000000000000000000,
#END
COURSE:Hard
LEVEL:4
BALLOON:16
SCOREINIT:2200
SCOREDIFF:960
#START
500000000000000000000000000000000000000080000000,
#MEASURE 2/4
#BPMCHANGE 87.81
000000000000000000000000,
#MEASURE 5/4
#BPMCHANGE 87.16
#SCROLL 1.01
100000000000000000000000100000000000000000000000
#BPMCHANGE 88.15
#SCROLL 1
000000000000,
#MEASURE 4/4
#BPMCHANGE 87.13
#SCROLL 1.01
000000000000000000101010100000000000000000101010,
#MEASURE 2/4
#BPMCHANGE 88.63
#SCROLL 0.99
100000000000000000000000,
#MEASURE 4/4
#BPMCHANGE 86.67
#SCROLL 1.01
100000000000000000000000000000000000000000101010,
#BPMCHANGE 89.15
#SCROLL 0.99
100000000000000000101010100000000000000000000000,
#MEASURE 2/4
#BPMCHANGE 87.13
#SCROLL 1.01
000000000000000000000000,
#MEASURE 4/4
#BPMCHANGE 86.13
#SCROLL 1.02
500000000000000000000000000000000000000000000080,
#MEASURE 2/4
#BPMCHANGE 81.23
#SCROLL 1.08
000000000000300000000000,
#BPMCHANGE 97.86
#SCROLL 0.9
300000000000200000000000,
#MEASURE 4/4
#BPMCHANGE 126.43
#SCROLL 0.96
#GOGOSTART
100000000000100000000000100000000000200000000000,
#BPMCHANGE 126.1
#SCROLL 1
100000000000100000000000000000000000100000001000,
#BPMCHANGE 122.37
#SCROLL 0.99
100000000000000000100000000000100000100000200000,
#BPMCHANGE 120.62
#SCROLL 1
100000000000100000000000000000000000200000002000,
#BPMCHANGE 123.97
#SCROLL 0.98
200000000000200000000000100000000000100000000000,
#BPMCHANGE 121.32
#SCROLL 1
100000100000200000200000100000100000100000100000,
#BPMCHANGE 121.76
200000000000000000000000000000100000100000200000,
#BPMCHANGE 121.09
100000000000100000000000100000000000100000000000,
#BPMCHANGE 121.78
500000000000000080000000000000100000200000200000,
#BPMCHANGE 120.07
#SCROLL 1.01
100000000000000000000000100000000000200000000000,
#BPMCHANGE 121.18
#SCROLL 0.99
500000000000000080000000000000100000200000200000,
#BPMCHANGE 120.01
#SCROLL 1.01
100000000000000000000000100000000000200000000000,
#BPMCHANGE 120.56
#SCROLL 1
500000000000000080000000000000100000100000200000,
#BPMCHANGE 119.54
#SCROLL 1.01
200000000000000000000000000000100000200000200000,
#BPMCHANGE 117.29
#SCROLL 1.03
100000000000000000000000100000000000000000000000,
#MEASURE 5/4
#BPMCHANGE 118.8
#SCROLL 1.02
500000000000000000000080
#GOGOEND
#BPMCHANGE 168.86
#SCROLL 0.72
000000000000000000000000
#BPMCHANGE 63.38
#SCROLL 1.91
000000000000,
#MEASURE 2/4
#BPMCHANGE 67.45
#SCROLL 1.8
200000000000000000000000,
#BPMCHANGE 63.8
#SCROLL 1.9
200000000000200000000000,
#MEASURE 5/4
#BPMCHANGE 71.12
#SCROLL 1.7
200000000000000000000000000000000000
#BPMCHANGE 67.89
#SCROLL 1.78
100000000000
#BPMCHANGE 69.25
#SCROLL 1.75
100000000000,
#BPMCHANGE 65.42
#SCROLL 1.85
#MEASURE 1/4
100000000000,
#MEASURE 6/4
#BPMCHANGE 68.2
#SCROLL 1.78
500000000000000000000000000080000000000000000000
#BPMCHANGE 63.65
#SCROLL 1.9
300000000000000000000000,
#MEASURE 2/4
#BPMCHANGE 46.61
#SCROLL 2.6
300000000000000000000000,
#MEASURE 4/4
#BPMCHANGE 64
#SCROLL 1.89
7,
08,
#END
COURSE:Normal
LEVEL:4
BALLOON:12
SCOREINIT:2160
SCOREDIFF:1260
#START
500000000000000000000000000000000000000080000000,
#MEASURE 2/4
#BPMCHANGE 87.81
000000000000000000000000,
#MEASURE 5/4
#BPMCHANGE 87.16
#SCROLL 1.01
100000000000000000000000100000000000000000000000
#BPMCHANGE 88.15
#SCROLL 1
000000000000,
#MEASURE 4/4
#BPMCHANGE 87.13
#SCROLL 1.01
500000000000000000000000000000000000000000000080,
#MEASURE 2/4
#BPMCHANGE 88.63
#SCROLL 0.99
000000000000000000000000,
#MEASURE 4/4
#BPMCHANGE 86.67
#SCROLL 1.01
100000000000000000000000000000000000000000000000,
#BPMCHANGE 89.15
#SCROLL 0.99
300000000000000000000000300000000000000000000000,
#MEASURE 2/4
#BPMCHANGE 87.13
#SCROLL 1.01
000000000000000000000000,
#MEASURE 4/4
#BPMCHANGE 86.13
#SCROLL 1.02
500000000000000000000000000000000000000000000080,
#MEASURE 2/4
#BPMCHANGE 81.23
#SCROLL 1.08
000000000000300000000000,
#BPMCHANGE 97.86
#SCROLL 0.9
300000000000200000000000,
#GOGOSTART
#MEASURE 4/4
#BPMCHANGE 126.43
#SCROLL 0.96
100000000000100000000000100000000000100000000000,
#BPMCHANGE 126.1
#SCROLL 1
100000000000100000000000000000000000100000000000,
#BPMCHANGE 122.37
#SCROLL 0.99
100000000000000000100000000000100000100000100000,
#BPMCHANGE 120.62
#SCROLL 1
100000000000100000000000000000000000200000000000,
#BPMCHANGE 123.97
#SCROLL 0.98
200000000000200000000000200000000000200000000000,
#BPMCHANGE 121.32
#SCROLL 1
200000000000000000000000000000200000200000200000,
#BPMCHANGE 121.76
200000000000000000000000000000100000100000100000,
#BPMCHANGE 121.09
100000000000100000000000100000000000100000000000,
#BPMCHANGE 121.78
500000000000000080000000000000100000100000100000,
#BPMCHANGE 120.07
#SCROLL 1.01
100000000000000000000000100000000000100000000000,
#BPMCHANGE 121.18
#SCROLL 0.99
500000000000000080000000000000100000100000100000,
#BPMCHANGE 120.01
#SCROLL 1.01
100000000000000000000000100000000000000000000000,
#BPMCHANGE 120.56
#SCROLL 1
500000000000000080000000000000200000200000200000,
#BPMCHANGE 119.54
#SCROLL 1.01
200000000000000000000000000000100000100000100000,
#BPMCHANGE 117.29
#SCROLL 1.03
100000000000000000000000100000000000000000000000,
#MEASURE 5/4
#BPMCHANGE 118.8
#SCROLL 1.02
500000000000000000000080
#GOGOEND
#BPMCHANGE 168.86
#SCROLL 0.72
000000000000000000000000
#BPMCHANGE 63.38
#SCROLL 1.91
000000000000,
#MEASURE 2/4
#BPMCHANGE 67.45
#SCROLL 1.8
200000000000000000000000,
#BPMCHANGE 63.8
#SCROLL 1.9
200000000000200000000000,
#MEASURE 5/4
#BPMCHANGE 71.12
#SCROLL 1.7
200000000000000000000000000000000000
#BPMCHANGE 67.89
#SCROLL 1.78
100000000000
#BPMCHANGE 69.25
#SCROLL 1.75
100000000000,
#BPMCHANGE 65.42
#SCROLL 1.85
#MEASURE 1/4
100000000000,
#MEASURE 6/4
#BPMCHANGE 68.2
#SCROLL 1.78
500000000000000000000000000080000000000000000000
#BPMCHANGE 63.65
#SCROLL 1.9
300000000000000000000000,
#MEASURE 2/4
#BPMCHANGE 46.61
#SCROLL 2.6
300000000000000000000000,
#MEASURE 4/4
#BPMCHANGE 64
#SCROLL 1.89
7,
08,
#END
COURSE:Easy
LEVEL:3
BALLOON:4,12
SCOREINIT:1920
SCOREDIFF:1580
#START
500000000000000000000000000000000000000080000000,
#MEASURE 2/4
#BPMCHANGE 87.81
000000000000000000000000,
#MEASURE 5/4
#BPMCHANGE 87.16
#SCROLL 1.01
100000000000000000000000100000000000000000000000
#BPMCHANGE 88.15
#SCROLL 1
000000000000,
#MEASURE 4/4
#BPMCHANGE 87.13
#SCROLL 1.01
500000000000000000000000000000000000000000000080,
#MEASURE 2/4
#BPMCHANGE 88.63
#SCROLL 0.99
000000000000000000000000,
#MEASURE 4/4
#BPMCHANGE 86.67
#SCROLL 1.01
100000000000000000000000000000000000000000000000,
#BPMCHANGE 89.15
#SCROLL 0.99
300000000000000000000000300000000000000000000000,
#MEASURE 2/4
#BPMCHANGE 87.13
#SCROLL 1.01
000000000000000000000000,
#MEASURE 4/4
#BPMCHANGE 86.13
#SCROLL 1.02
500000000000000000000000000000000000000000000080,
#MEASURE 2/4
#BPMCHANGE 81.23
#SCROLL 1.08
000000000000000000000000,
#BPMCHANGE 97.86
#SCROLL 0.9
000000000000000000000000,
#GOGOSTART
#MEASURE 4/4
#BPMCHANGE 126.43
#SCROLL 0.96
100000000000100000000000100000000000100000000000,
#BPMCHANGE 126.1
#SCROLL 1
100000000000000000000000000000000000000000000000,
#BPMCHANGE 122.37
#SCROLL 0.99
100000000000000000000000000000000000000000000000,
#BPMCHANGE 120.62
#SCROLL 1
100000000000100000000000000000000000000000000000,
#BPMCHANGE 123.97
#SCROLL 0.98
100000000000100000000000100000000000100000000000,
#BPMCHANGE 121.32
#SCROLL 1
100000000000000000000000000000000000000000000000,
#BPMCHANGE 121.76
100000000000000000000000000000000000000000000000,
#BPMCHANGE 121.09
100000000000100000000000100000000000100000000000,
#BPMCHANGE 121.78
300000000000000000000000000000000000000000000000,
#BPMCHANGE 120.07
#SCROLL 1.01
200000000000000000000000100000000000100000000000,
#BPMCHANGE 121.18
#SCROLL 0.99
300000000000000000000000000000000000000000000000,
#BPMCHANGE 120.01
#SCROLL 1.01
200000000000000000000000100000000000100000000000,
#BPMCHANGE 120.56
#SCROLL 1
300000000000000000000000000000000000000000000000,
#BPMCHANGE 119.54
#SCROLL 1.01
700000000000000000000000000000800000000000000000,
#BPMCHANGE 117.29
#SCROLL 1.03
300000000000000000000000300000000000000000000000,
#MEASURE 5/4
#BPMCHANGE 118.8
#SCROLL 1.02
500000000000000000000080
#GOGOEND
#BPMCHANGE 168.86
#SCROLL 0.72
000000000000000000000000
#BPMCHANGE 63.38
#SCROLL 1.91
000000000000,
#MEASURE 2/4
#BPMCHANGE 67.45
#SCROLL 1.8
200000000000000000000000,
#BPMCHANGE 63.8
#SCROLL 1.9
200000000000200000000000,
#MEASURE 5/4
#BPMCHANGE 71.12
#SCROLL 1.7
200000000000000000000000000000000000
#BPMCHANGE 67.89
#SCROLL 1.78
100000000000
#BPMCHANGE 69.25
#SCROLL 1.75
100000000000,
#BPMCHANGE 65.42
#SCROLL 1.85
#MEASURE 1/4
100000000000,
#MEASURE 6/4
#BPMCHANGE 68.2
#SCROLL 1.78
500000000000000000000000000080000000000000000000
#BPMCHANGE 63.65
#SCROLL 1.9
300000000000000000000000,
#MEASURE 2/4
#BPMCHANGE 46.61
#SCROLL 2.6
300000000000000000000000,
#MEASURE 4/4
#BPMCHANGE 64
#SCROLL 1.89
7,
08,
#END