668 lines
7.3 KiB
Plaintext
668 lines
7.3 KiB
Plaintext
//TJADB Project
|
|
TITLE:Pokémon Black 2 & White 2 Gym Medley
|
|
TITLEJA:ポケットモンスターブラック2・ホワイト2
|
|
SUBTITLE:--Go Ichinose/Pokémon Black 2 & White 2
|
|
SUBTITLEJA:ジム戦メドレー
|
|
BPM:119.49
|
|
WAVE:Pokemon Black 2 and White 2 Gym Medley.ogg
|
|
OFFSET:-2.312
|
|
DEMOSTART:112.823
|
|
|
|
COURSE:Oni
|
|
LEVEL:8
|
|
SCOREINIT:380
|
|
SCOREDIFF:95
|
|
|
|
|
|
#START
|
|
|
|
|
|
#MEASURE 5/4
|
|
0000
|
|
#BPMCHANGE 114.92
|
|
1120112011202210,
|
|
#MEASURE 2/4
|
|
11201120,
|
|
#MEASURE 4/4
|
|
3001200030012000,
|
|
1120112011201120,
|
|
#MEASURE 2/4
|
|
#BPMCHANGE 113.88
|
|
2,
|
|
|
|
#GOGOSTART
|
|
#MEASURE 4/4
|
|
#BPMCHANGE 175.94
|
|
1111111111111111,
|
|
1111111111111111,
|
|
20211021,
|
|
10211020,
|
|
1010222010102220,
|
|
1010222010102000,
|
|
1111111111112000,
|
|
1111111111112000,
|
|
1010222010102220,
|
|
1010222010102000,
|
|
|
|
#GOGOEND
|
|
10201122,
|
|
11201020,
|
|
200000500000000000000000000000000008000000000000,
|
|
200000500000000000000000000000000008000000000000,
|
|
10201122,
|
|
11201020,
|
|
100000500000000000000000000000000008000000000000,
|
|
100000500000000000000000000000000008000000000000,
|
|
10201122,
|
|
1010222010102000,
|
|
10020000,
|
|
1110200022201000,
|
|
10201122,
|
|
1010222010102000,
|
|
10020000,
|
|
1111100011111000,
|
|
40010000,
|
|
1000000010202220,
|
|
40040000,
|
|
10001120,
|
|
|
|
#GOGOSTART
|
|
33330440,
|
|
33330440,
|
|
33330440,
|
|
33330403,
|
|
|
|
#GOGOEND
|
|
40010020,
|
|
21001200,
|
|
1111100000000000,
|
|
2222200000000000,
|
|
10020020,
|
|
12002100,
|
|
1111100000000000,
|
|
2211221122222220,
|
|
40210021,
|
|
2000201120102000,
|
|
20210021,
|
|
2000201120102010,
|
|
10210020,
|
|
2,
|
|
10210020,
|
|
1020221022102000,
|
|
4011102011102010,
|
|
20221020,
|
|
1011102011102010,
|
|
20221020,
|
|
10010020,
|
|
2,
|
|
10010020,
|
|
2010201021102110,
|
|
|
|
#GOGOSTART
|
|
1011201011102020,
|
|
1011201010112020,
|
|
1011201011102020,
|
|
2222202020111010,
|
|
1011201011102020,
|
|
1011201011102020,
|
|
2210201000102000,
|
|
2210201000102000,
|
|
2210201000102000,
|
|
#BPMCHANGE 176.53
|
|
3,
|
|
|
|
#GOGOEND
|
|
#BPMCHANGE 161.03
|
|
0333,
|
|
#BPMCHANGE 162.77
|
|
300300304040,
|
|
#BPMCHANGE 161.96
|
|
3000303000002220,
|
|
3000303000002220,
|
|
4000303000002220,
|
|
100100200000200000200000100010002000100010002000,
|
|
40021020,
|
|
1011100020002011,
|
|
1000001110102000,
|
|
100000000000000000100100200000200000200020002000,
|
|
24021020,
|
|
100000100100100000000000400000003000000040000000,
|
|
1110222011122020,
|
|
2220002220000000,
|
|
|
|
40021020,
|
|
1011100010200011,
|
|
2000002220001111,
|
|
200000000000000000100100200000200000200020002000,
|
|
40021020,
|
|
100000100100100000000000400000003000000040000000,
|
|
30043010,
|
|
2000022111200010,
|
|
|
|
#GOGOSTART
|
|
2001201000102110,
|
|
2001201000102110,
|
|
2001201000102110,
|
|
2002201000102220,
|
|
2001201000102110,
|
|
2002201000102110,
|
|
2001201000102110,
|
|
2002201000104000,
|
|
4001201000102110,
|
|
2001201000200021,
|
|
20111111,
|
|
#BPMCHANGE 161.95
|
|
40011222,
|
|
|
|
#GOGOEND
|
|
#BPMCHANGE 164.29
|
|
4000001120000012,
|
|
2000002220000000,
|
|
#BPMCHANGE 165.09
|
|
21102110,
|
|
21212020,
|
|
21102110,
|
|
21212000,
|
|
21102110,
|
|
21212020,
|
|
21102110,
|
|
#BPMCHANGE 164.49
|
|
21212000,
|
|
#BPMCHANGE 140.77
|
|
4001200000002010,
|
|
2001200000002000,
|
|
21212000,
|
|
|
|
|
|
#END
|
|
|
|
|
|
COURSE:Hard
|
|
LEVEL:6
|
|
SCOREINIT:400
|
|
SCOREDIFF:98
|
|
|
|
|
|
#START
|
|
|
|
|
|
#MEASURE 5/4
|
|
#BPMCHANGE 116
|
|
00001110111011102220,
|
|
#MEASURE 2/4
|
|
11101110,
|
|
#MEASURE 4/4
|
|
3001200030012000,
|
|
1110111011101110,
|
|
#MEASURE 2/4
|
|
2,
|
|
|
|
#GOGOSTART
|
|
#MEASURE 4/4
|
|
#BPMCHANGE 175.8
|
|
5,
|
|
0008,
|
|
2001,
|
|
2,
|
|
11201120,
|
|
11201120,
|
|
5,
|
|
0008,//13
|
|
11201120,
|
|
11201120,
|
|
|
|
#GOGOEND
|
|
10201120,
|
|
11001020,
|
|
25000080,
|
|
25000080,//19
|
|
10201120,
|
|
11001020,
|
|
15000080,
|
|
15000080,//23
|
|
10201120,
|
|
10201120,
|
|
10020000,
|
|
1110000022200000,//27
|
|
10201120,
|
|
10201120,
|
|
10020000,
|
|
,//31
|
|
40010000,
|
|
1000000010202220,
|
|
40040000,
|
|
10001120,//35
|
|
|
|
#GOGOSTART
|
|
33330440,
|
|
33330440,
|
|
33330440,
|
|
33330403,//39
|
|
|
|
#GOGOEND
|
|
40010020,
|
|
21001200,
|
|
1110100000000000,
|
|
2220200000000000,
|
|
10010020,
|
|
11002200,//45
|
|
1110200000000000,
|
|
2220222022202000,
|
|
40210022,
|
|
1000202220002020,
|
|
10210022,
|
|
1000202220002000,//51
|
|
10110020,
|
|
2,
|
|
10110020,
|
|
2020222022202000,
|
|
4011101000001010,//56
|
|
20221020,
|
|
1011101000001010,
|
|
20221020,
|
|
10010020,
|
|
2,//61
|
|
10010020,
|
|
2,//63
|
|
|
|
#GOGOSTART
|
|
#BPMCHANGE 176
|
|
1011101011101000,
|
|
1011101011101000,
|
|
1011101011101000,
|
|
2220202020000000,//67
|
|
1011101011101000,
|
|
1011101011101000,
|
|
2222200000101000,
|
|
1111100000101000,
|
|
2222200000000000,
|
|
3,//73
|
|
|
|
#GOGOEND
|
|
#BPMCHANGE 162
|
|
0333,
|
|
300300304040,
|
|
3000303000002220,
|
|
3000303000002220,
|
|
4000303000002220,//78
|
|
1110202050000080,
|
|
40011010,
|
|
1000000010000011,
|
|
1000001110102000,
|
|
10011020,//83
|
|
10011010,//84
|
|
100333,
|
|
58585081,
|
|
2000002220000000,
|
|
|
|
40011010,
|
|
1000000000100011,
|
|
2000001110101000,
|
|
10011020,
|
|
40011010,//92
|
|
100333,
|
|
30011000,
|
|
1000100011100010,//95
|
|
|
|
#GOGOSTART
|
|
2002200000101110,
|
|
2002200000101000,
|
|
2002200000101110,
|
|
2002200000002000,//99
|
|
2002200000101110,
|
|
2002200000101000,
|
|
2002200000101110,
|
|
2002200000002000,
|
|
4001100000101110,
|
|
4001100000100022,//105
|
|
2,
|
|
40011122,
|
|
|
|
#GOGOEND
|
|
#BPMCHANGE 165
|
|
4000001120000011,
|
|
2000001120000000,
|
|
21102110,
|
|
21212020,//111
|
|
21102110,
|
|
21212000,
|
|
21102110,
|
|
21212020,
|
|
21102110,
|
|
21212000,//117
|
|
#BPMCHANGE 142
|
|
3001100000001010,
|
|
3001100000001000,
|
|
21212000,
|
|
|
|
|
|
#END
|
|
|
|
|
|
COURSE:Normal
|
|
LEVEL:2
|
|
BALLOON:6
|
|
SCOREINIT:550
|
|
SCOREDIFF:163
|
|
|
|
|
|
#START
|
|
|
|
|
|
#MEASURE 5/4
|
|
#BPMCHANGE 116
|
|
#SCROLL 0.75
|
|
01111,
|
|
#MEASURE 2/4
|
|
11,
|
|
#MEASURE 4/4
|
|
3434,
|
|
1111,
|
|
#MEASURE 2/4
|
|
1,//5
|
|
|
|
#GOGOSTART
|
|
#MEASURE 4/4
|
|
#BPMCHANGE 175.8
|
|
5,
|
|
0008,
|
|
1,
|
|
2,
|
|
1110,
|
|
1110,
|
|
5,
|
|
0008,//13
|
|
1110,
|
|
1110,
|
|
|
|
#GOGOEND
|
|
1,
|
|
1011,
|
|
58,
|
|
58,//19
|
|
1,
|
|
1011,
|
|
58,
|
|
58,//23
|
|
1,
|
|
11,
|
|
10020000,
|
|
,//27
|
|
1,
|
|
11,
|
|
10020000,
|
|
,//31
|
|
40010000,
|
|
1011,
|
|
40040000,
|
|
1,//35
|
|
|
|
#GOGOSTART
|
|
30300300,
|
|
30300300,
|
|
30300300,
|
|
30300300,//39
|
|
|
|
#GOGOEND
|
|
10010000,
|
|
11,
|
|
50080000,
|
|
50080000,
|
|
10010000,
|
|
11,//45
|
|
50080000,
|
|
5008,
|
|
10010010,
|
|
12,
|
|
10010010,
|
|
12,//51
|
|
10010010,
|
|
2,
|
|
10010010,
|
|
2,
|
|
1100,//56
|
|
22,
|
|
1100,
|
|
22,
|
|
10010010,
|
|
2,//61
|
|
10010010,
|
|
2,//63
|
|
|
|
#GOGOSTART
|
|
#BPMCHANGE 176
|
|
1110,
|
|
2220,
|
|
1100,
|
|
58,//67
|
|
1110,
|
|
2220,
|
|
1100,
|
|
58,
|
|
58,
|
|
3,//73
|
|
|
|
#GOGOEND
|
|
#BPMCHANGE 162
|
|
0,
|
|
,
|
|
40010010,
|
|
30010010,
|
|
40010010,//78
|
|
30005008,
|
|
11,
|
|
01,
|
|
1,
|
|
10001110,//83
|
|
11,//84
|
|
01,
|
|
58585858,
|
|
50000800,
|
|
|
|
11,
|
|
01,
|
|
1,
|
|
10001110,
|
|
11,//92
|
|
05,
|
|
08003000,
|
|
3,//95
|
|
|
|
#GOGOSTART
|
|
1581,
|
|
2200,
|
|
1581,
|
|
1200,//99
|
|
1581,
|
|
2200,
|
|
1581,
|
|
1204,
|
|
40500800,
|
|
30500800,//105
|
|
3,
|
|
4,
|
|
|
|
#GOGOEND
|
|
#BPMCHANGE 165
|
|
10011001,
|
|
10011000,
|
|
1111,
|
|
1122,//111
|
|
1111,
|
|
2220,
|
|
1111,
|
|
1122,
|
|
1111,
|
|
2220,//117
|
|
#BPMCHANGE 142
|
|
4102,
|
|
4102,
|
|
90000008,
|
|
|
|
|
|
#END
|
|
|
|
COURSE:Easy
|
|
LEVEL:2
|
|
BALLOON:3,3,3,3,3
|
|
SCOREINIT:570
|
|
SCOREDIFF:178
|
|
|
|
|
|
#START
|
|
|
|
|
|
#MEASURE 5/4
|
|
#BPMCHANGE 116
|
|
#SCROLL 0.75
|
|
01010,
|
|
#MEASURE 2/4
|
|
1,
|
|
#MEASURE 4/4
|
|
33,
|
|
11,
|
|
#MEASURE 2/4
|
|
1,//5
|
|
|
|
#GOGOSTART
|
|
#MEASURE 4/4
|
|
#BPMCHANGE 175.8
|
|
5,
|
|
00000800,
|
|
1,
|
|
1,
|
|
33,
|
|
33,
|
|
5,
|
|
00000800,//13
|
|
33,
|
|
33,
|
|
|
|
#GOGOEND
|
|
1,
|
|
11,
|
|
58,
|
|
58,//19
|
|
1,
|
|
11,
|
|
58,
|
|
58,//23
|
|
1,
|
|
1,
|
|
10010000,
|
|
,//27
|
|
1,
|
|
1,
|
|
10010000,
|
|
,//31
|
|
10010000,
|
|
1,
|
|
40040000,
|
|
1,//35
|
|
|
|
#GOGOSTART
|
|
7008,
|
|
7008,
|
|
7008,
|
|
7008,//39
|
|
|
|
#GOGOEND
|
|
11,
|
|
1,
|
|
1100,
|
|
1100,
|
|
11,
|
|
1,//45
|
|
1100,
|
|
50000800,
|
|
1,
|
|
11,
|
|
1,
|
|
11,//51
|
|
11,
|
|
1,
|
|
11,
|
|
50000800,
|
|
1110,//56
|
|
11,
|
|
1110,
|
|
11,
|
|
1,
|
|
1,//61
|
|
1,
|
|
1,//63
|
|
|
|
#GOGOSTART
|
|
#BPMCHANGE 176
|
|
11,
|
|
1110,
|
|
1100,
|
|
58,//67
|
|
11,
|
|
1110,
|
|
1100,
|
|
58,
|
|
58,
|
|
3,//73
|
|
|
|
#GOGOEND
|
|
#BPMCHANGE 162
|
|
0,
|
|
,
|
|
30030000,
|
|
30030000,
|
|
40030000,//78
|
|
3,
|
|
11,
|
|
01,
|
|
1,
|
|
,//83
|
|
11,//84
|
|
01,
|
|
58585858,
|
|
50000800,
|
|
|
|
11,
|
|
01,
|
|
1,
|
|
,
|
|
11,//92
|
|
01,
|
|
1,
|
|
1,//95
|
|
|
|
#GOGOSTART
|
|
1580,
|
|
1100,
|
|
1580,
|
|
1,//99
|
|
1100,
|
|
10500800,
|
|
1100,
|
|
10500800,
|
|
3300,
|
|
3300,//105
|
|
3,
|
|
3,
|
|
|
|
#GOGOEND
|
|
#BPMCHANGE 165
|
|
1,
|
|
1,
|
|
11,
|
|
11,//111
|
|
11,
|
|
12,
|
|
11,
|
|
11,
|
|
11,
|
|
12,//117
|
|
#BPMCHANGE 142
|
|
3,
|
|
3,
|
|
90000008,
|
|
|
|
|
|
#END
|
|
|