Files
ESE/07 Game Music/Positive/Positive Ami and Mami Version.tja

629 lines
7.6 KiB
Plaintext

//TJADB Project
TITLE:Positive! -Ami & Mami Version-
TITLEJA:ポジティブ!
SUBTITLE:--Koji Nakagawa feat. Asami Shimoda/THE iDOLM@STER
SUBTITLEJA:別歌唱バージョン ‐ 亜美・真美
BPM:138
WAVE:Positive Ami and Mami Version.ogg
OFFSET:-2.039
DEMOSTART:65.073
SCENEPRESET:IMAS
//Vita MS Chart
COURSE:Oni
LEVEL:7
BALLOON:13
SCOREINIT:520,1710
SCOREDIFF:138
#START
500000000000000000000000000000000000000000000008,
00000121,
01110121,
0044,
10100111,
01010000,
9009,
8, //8
#SECTION
#BRANCHSTART p,65,86.67
#N
10101211,
0010201022202000,
10101121,
0010100011102000,
10101211,
0010201022202000,
10101121,
0010201011102000, //n16
#E
10101211,
0010201022202220,
10101121,
0010100011102220,
10101211,
0010201022202220,
10101121,
0010201011102220, //e16
#M
1000100010111010,
0010201110102022,
1000102010112010,
0010201110102011,
1000100010111010,
0010201110102022,
1000102010112010,
0010201110102011, //m16
#SECTION
#BRANCHSTART p,60,80
#N
10101211,
0010101022202000,
10101121,
0010001011102000,
10101121,
0010101022202000,
10101121,
0010201011102000, //n24
#E
10101211,
0010101022202220,
10101121,
0010001011102220,
10101121,
0010101022202220,
10101121,
0010201011102220, //e24
#M
1001101010221010,
0011101022101022,
1001101010112010,
0011101011202022,
1001101010221010,
0011101022102022,
1001101010112010,
0011101011202220, //m24
#SECTION
#BRANCHSTART p,60,80
#N
1010201110102020,
1010201011102000,
1010201110102020,
1011101110102000,
1010201110102020,
11210121,
01010000,
3030303022202000,
1010222010102220,
1010222010102000,
1010222010102220,
1010222010102020, //n36
#E
1010201110102020,
1010201011102220,
1010201110102020,
1022102210102000,
1010201110102020,
1010201011102010,
01010000,
3030303022202000,
1011222010112120,
1011222010102000,
1011222010112120,
1011222011102220, //e36
#M
1010200110102020,
1011201101102020,
1010200110102020,
1022102210112210,
1010200110102020,
1011201101102010,
01010220,
3030303022202000,
1121202011212020,
1121202011102000,
1121202011212020,
1121202011102020, //m36
#SECTION
#BRANCHSTART p,60,80
#N
#GOGOSTART
0000300120101110,
01210122,
11221122,
1020102011101020,
0000400120101110,
01210122,
11221122,
1020102011102010, //n44
#E
#GOGOSTART
0000300120102210,
0010201110102220,
1010222010102220,
1020102012101020,
0000400120102210,
0010201110102220,
1010222010102220,
1020102012102010, //e44
#M
#GOGOSTART
0000300120102210,
0010201210102022,
1010222010102220,
1011101110112020,
0000400120102210,
0010201210102022,
1010222010102220,
1011101110112010, //m44
#SECTION
#BRANCHSTART p,60,80
#N
0000300120101110,
01210122,
11221122,
1020102011101020,
0000400120101110,
01210122,
11221122,
1020102011102010, //n52
#GOGOEND
#E
0000300120102210,
0010201120102220,
1010222010102220,
1020102012101020,
0000400120102210,
0010201120102220,
1010222010102220,
1020102012102010, //e52
#GOGOEND
#M
0000300120102210,
0010201122102020,
1010222010112020,
1011201110112020,
0000400120102210,
0010201122102020,
1010222010112020,
1011201110112010, //m52
#GOGOEND
#SECTION
#BRANCHSTART p,60,80
#N
0101,
0101,
00100011,
0000102220222010,
2001100020011000,
2001100020011010,
2001100020011022,
2001102011102020, //n60
#E
0101,
0101,
00100011,
0000102210221010,
2001100220021011,
2001100220021011,
2001100220011002,
2001100022102020, //e60
#M
00100012,
00100012,
00100011,
0000102211221010,
2001102220021011,
2001102220021011,
2001102220021011,
2001101022112020, //m60
#SECTION
#BRANCHSTART p,60,80
#N
#GOGOSTART
0000300120101110,
01210122,
11221122,
1020102011101020,
0000400120101110,
01210122,
11221122,
30304001, //n68
#E
#GOGOSTART
0000300120102210,
2010201120102120,
1010212010102120,
1020102012101020,
0000400120102210,
2010201120102040,
1010204010102120,
30304001, //e68
#M
#GOGOSTART
0000300120102210,
2011201120112022,
1010212010112020,
1020121012112020,
0000400120102210,
2011201120112022,
1011204010112040,
30304001, //m68
#SECTION
#BRANCHSTART p,60,80
#N
0020102011102010, //n69
#GOGOEND
0,
0, //n71
#E
0020102012102010, //e69
#GOGOEND
0,
0, //e71
#M
0020121012112010, //m69
#GOGOEND
0,
0, //m71
#BRANCHEND
#END
COURSE:Hard
LEVEL:5
BALLOON:13,4,13,13
SCOREINIT:650,2720
SCOREDIFF:175
#START
600000000000000000000000000000000000000000000008,
00000121,
01210121,
01104040,
10100121,
01210121,
9009,
8, //8
10101211,
03030000,
10121104,
04040000,
10101211,
03030000,
10121104,
04040000, //16
1001101010102010,
0,
10121103,
03030000,
1001101010102010,
0,
10121104,
04040000, //24
10211020,
10211000,
10211010,
20202200,
10211021,
12011033,
03030000,
40440000, //32
11221122,
100100200200700000080000,
11221122,
700000000000000000000000000000000000000008000000, //36
#GOGOSTART
0000300110102010,
01230121,
01210121,
20201121,
0000400110102010,
01230121,
01210121,
20201121, //44
0000300110102010,
01230121,
0010201000011010,
20201121,
0000400110102010,
01230121,
0010201000111010,
20201121, //52
#GOGOEND
00100011,
00100011,
00100011,
00100011,
0002200000022000,
0002200000022000,
0002200000022000,
0002200040004000, //60
#GOGOSTART
0000300110102010,
01230121,
01210121,
20201121,
0000400110102010,
01230121,
01210121,
30303009, //68
00000908,
#GOGOEND
0,
0, //71
#END
COURSE:Normal
LEVEL:4
BALLOON:8,4,10,13
SCOREINIT:650,3690
SCOREDIFF:198
#START
600000000000000000000000000000000000000000000008,
00000111,
01110111,
0044,
10100111,
01110111,
9009,
8, //8
10101003,
03030000,
10101004,
04040000,
10101003,
03030000,
10101004,
04040000, //16
10101011,
0,
10101003,
03030000,
10101011,
0,
10101004,
04040000, //24
10011000,
10011000,
10011000,
20202200,
10011000,
10011033,
03030000,
40440000, //32
11101110,
100100100000700000080000,
11101110,
700000000000000000000000000000000000000008000000, //36
#GOGOSTART
00303001,
01110003,
00030000,
10101011,
00404001,
01110003,
00030000,
10101011, //44
00303001,
01110003,
00030000,
10101011,
00404001,
01110003,
00030000,
10101011, //52
#GOGOEND
00100011,
00100011,
00100011,
00100011,
0202,
0202,
0202,
0244, //60
#GOGOSTART
00303001,
01110003,
00030000,
10101011,
00404001,
01110003,
00030000,
30303009, //68
00000908,
#GOGOEND
0,
0,
#END
COURSE:Easy
LEVEL:3
BALLOON:8,4,10,13
SCOREINIT:610,5450
SCOREDIFF:195
#START
600000000000000000000000000000000000000000000008,
0,
0,
0044,
0,
0,
9009,
8, //8
10101003,
00030000,
10101004,
00040000,
10101003,
00030000,
10101004,
00040000, //16
1111,
0,
10101003,
00030000,
1111,
0,
10101004,
00040000, //24
1011,
1,
1011,
2220,
1011,
10001003,
03030000,
30330000, //32
1111,
100000100000700000080000,
1111,
700000000000000000000000000000000000000008000000, //36
#GOGOSTART
00303003,
00060000,
000000000000000008000000000000000000000000000000,
1111,
00404003,
00060000,
000000000000000008000000000000000000000000000000,
1111, //44
00303003,
00060000,
000000000000000008000000000000000000000000000000,
1111,
00404003,
00060000,
000000000000000008000000000000000000000000000000,
1111, //52
#GOGOEND
0101,
0101,
0101,
0101,
0202,
0202,
0202,
0244, //60
#GOGOSTART
00303003,
00060000,
000000000000000008000000000000000000000000000000,
1111,
00404003,
00060000,
000000000000000008000000000000000000000000000000,
30303009, //68
00000908,
#GOGOEND
0,
0, //71
#END