Files

386 lines
4.7 KiB
Plaintext

//TJADB Project
TITLE:READY‼ -VitaMS Chart-
TITLEJA:READY!!
TITLEZH:READY!!
SUBTITLE:--Satoru Kousaki feat. 765PRO ALLSTARS/THE iDOLM@STER 2
SUBTITLEJA:VitaMS譜面 「アイドルマスター」より
BPM:174
WAVE:READY.ogg
OFFSET:-1.615
DEMOSTART:59.538
SCENEPRESET:IMAS
COURSE:Oni
LEVEL:6
BALLOON:
SCOREINIT:650,2260
SCOREDIFF:180
#START
20022002,
02202000,
20220202,
00022020,
20000222,
00000222,
00020000,
02222022, //8
#GOGOSTART
1000201110102010,
0010201110102010,
2000201000102011,
21210121,
1000201110102010,
0010201110102010,
2000201000102011,
21210212, //16
#GOGOEND
10201122,
10201120,
10210120,
40440120,
10211120,
10211120,
4343,
4000303000404022, //24
11211121,
11211121,
500000000000000000000008000000200200200000500000,
000000000000000000000008000000200200200000200000,
11211121,
11212120,
11212022,
11222020, //32
1022202000102020,
1022101000201020,
1022202000102020,
1022101000201000,
1020102210201020,
1020102210201020,
1000100010112000,
1011201000112011,
1022201022202220,
33330430, //42
#GOGOSTART
1000201110102010,
0010201120202010,
10210122,
1000201110222020,
1000201110222020,
1000201020001011,
1011101110111010,
3344, //50
1000201110102010,
0010201120202000,
10210122,
1000201110222020,
1000201110222020,
1000201110222020,
1011101120202022,
1002, //58
1000201110102010,
0010201110102010,
2000201000102011,
21210212,
#GOGOEND
0300,
0,
0, //65
#END
COURSE:Hard
LEVEL:5
BALLOON:
SCOREINIT:680,2990
SCOREDIFF:208
#START
0,
0,
0,
0,
1,
1,
1,
02222022, //8
#GOGOSTART
10201121,
01201121,
01210123,
01210121,
10201121,
01201121,
01210123,
01210212, //16
#GOGOEND
00201120,
10201120,
30330030,
40440000,
10201120,
10201120,
4343,
40330440, //24
10201122,
10201120,
500000000000000000000008000000000000500000000000,
000000000000000000000008000000000000000000000000,
10211120,
10212020,
11201120,
3334, //32
10010120,
10010220,
10010120,
10010220,
12101210,
12101212,
10101120,
12120202,
500000000000000000000000000000000008000000000000,
33330430, //42
#GOGOSTART
10211221,
01211220,
10210122,
3333,
10221122,
10210122,
11221122,
1011101040004000, //50
10211221,
01211220,
10210122,
3333,
10210122,
10210122,
1011101110111011,
1, //58
10201121,
01201121,
01210123,
01210212,
#GOGOEND
0300,
0,
0, //65
#END
COURSE:Normal
LEVEL:4
BALLOON:9
SCOREINIT:870,5190
SCOREDIFF:438
#START
0,
0,
0,
0,
1,
1,
1,
1011, //8
#GOGOSTART
0303,
0303,
0303,
4444,
0303,
0303,
0303,
4444,//16
#GOGOEND
0101,
0111,
30330000,
40440000,
0101,
0222,
2303,
0303, //24
0101,
0111,
500000000000000000000008000000000000500000000000,
000000000000000000000008000000000000000000000000,
0101,
0122,
33,
3333, //32
500000000000000000000008000000000000400000000000,
500000000000000000000008000000000000400000000000,
500000000000000000000008000000000000400000000000,
500000000000000000000008000000000000400000000000,
0101,
0202,
5,
000000000000000000000000000000000008000000000000,
3,
33330000, //42
#GOGOSTART
00200440,
00200440,
0202,
3333,
0202,
0101,
1111,
1144, //50
00200440,
00200440,
0202,
3333,
500000000000000000000008000000000000100000000000,
500000000000000000000008000000000000100000000000,
500000000000000000000000000000000008000000000000,
30000009,//58
000000000000000000000000000000000009000000000000,
080000000000000000000000000000000000000000000000,
0303,
0404,
#GOGOEND
0300,
0,
0, //65
#END
COURSE:Easy
LEVEL:3
BALLOON:7
SCOREINIT:650,6190
SCOREDIFF:423
#START
0,
0,
0,
0,
1,
1,
1,
1, //8
#GOGOSTART
0303,
0303,
0303,
0404,
0303,
0303,
0303,
0404,//16
#GOGOEND
0101,
0111,
0101,
600000000000000000000000000000000008000000000000,
0101,
0111,
0303,
0303, //24
0101,
0111,
500000000000000000000008000000000000500000000000,
000000000000000000000008000000000000000000000000,
0101,
0122,
33,
3333, //32
500000000000000000000008000000000000400000000000,
500000000000000000000008000000000000400000000000,
500000000000000000000008000000000000400000000000,
500000000000000000000008000000000000400000000000,
0101,
0202,
5,
000000000000000000000000000000000008000000000000,
3,
33330000, //42
#GOGOSTART
00000440,
00000440,
0,
3333,
0202,
0202,
0101,
1144, //50
00000440,
00000440,
0,
3333,
500000000000000000000008000000000000100000000000,
500000000000000000000008000000000000100000000000,
500000000000000000000000000008000000000000000000,
30000009,//58
000000000000000000000000000000000009000000000000,
080000000000000000000000000000000000000000000000,
0303,
0404,
#GOGOEND
0300,
0,
0, //65
#END