Files
GanYiZhongandClaude Opus 5 7320a9448e Add TITLEZH_TW / SUBTITLEZH_TW (Traditional Chinese titles)
Add Traditional Chinese title (1276 charts) and subtitle (900 charts)
header fields. Header additions only; no chart data changed.

Co-Authored-By: Claude Opus 5 <noreply@anthropic.com>
2026-09-17 12:42:55 +08:00

696 lines
7.7 KiB
Plaintext

//TJADB Project
TITLE:Remnath
TITLEJA:Remnath
TITLEZH:Remnath
TITLEZH_TW:Remnath
SUBTITLE:--penoreri From "WAHLAP Esports WEC2025"
SUBTITLEJA:ぺのれり 「WAHLAP eスポーツWEC2025」より
SUBTITLEZH:penoreri 出自"华立电竞WEC2025"
SUBTITLEZH_TW:--penoreri From "WAHLAP Esports WEC2025"
BPM:187
WAVE:Remnath.ogg
OFFSET:-1.925
DEMOSTART:71.220
COURSE:Oni
LEVEL:10
BALLOON:
SCOREINIT:910
SCOREDIFF:0
#START
0,
0,
0,
1020202000221020,
22021212,
2000201110102001,
100000100000200000100100200000000200100000101010,
1020202000221020,
2020002210102010,
2010222010102010,
2220101011212120,
3000112122103000,
1111221211221210,
3000112122103000,
1122121040221110,
3000221122112211,
2121212122112211,
1020120120120122,
1221221221222211, //19
10211020,
1011221220012220,
3336,
000000000000000008000000200200200200200200200200,
1012112212121122,
1022102210221022,
100000200100200100200100100000202020101010101010,
100111200112200122200100,
3000112211212030,
0011122211212030,
0011122120120120,
33,
10212211,
1120101011202010,
1220101012202010,
12, //35
12220012,
22002020,
20020020,
02002020,
10220022,
22002020,
100000000200101010100100200100200100200200100100,
1020120120222111,
1020222010001020,
2220100010201220,
100000200200200000100200200000100000500000000008,
000000202010100000200000100000200100000000400000,
0011221211112212,
1122121211221212,
1022111120120120,
1022111022111022,
1110221112221000,
100222111111222111000000,
1111111122121000, //54
#MEASURE 17/16
#GOGOSTART
10221120
#BPMCHANGE 210.38
#SCROLL 0.89
221221221,
#MEASURE 9/8
221221221221221221,
#MEASURE 4/4
#BPMCHANGE 187
#SCROLL 1
1001102010221120,
#MEASURE 9/8
#BPMCHANGE 210.38
#SCROLL 0.89
221221221221221221,
#MEASURE 4/4
#BPMCHANGE 187
#SCROLL 1
1011112212212212,
1011222120021020,
1022111122221111,
#MEASURE 9/8
#BPMCHANGE 210.38
#SCROLL 0.89
221221221221221221, //62
#MEASURE 4/4
#BPMCHANGE 187
#SCROLL 1
1020102110201022,
1020102210021021,
100000200000100000200200100000000200000002000000,
443443,
3000112211221122,
1122112212104000,
1000221122112211,
2111211122112212,
1021021010111122,
2012012022221111,
500000000008000000000600000000000000000000000800,
0011122211112222,
24443333,
200100100100200100100100101010101010101010101010, //76
#GOGOEND
100002002020,
222122,
1000002020001111,
#GOGOSTART
243443,
3011112212212212,
1011222120040040,
0022111122221111,
#MEASURE 9/8
#BPMCHANGE 210.38
#SCROLL 0.89
221221221221221221, //84
#MEASURE 4/4
#BPMCHANGE 187
#SCROLL 1
1022101110121011,
2022102212012012,
100000100100100000100100200000001000000010000000,
443443,
3000112211221111,
2211221121112111,
200000200200100000100200100000002000000020000000,
100100100100100100100000202020202020202020202020,
100200111020100200111020,
111020100200111020100000,
300200111020100200111020,
111020100200111010222020,
100200111020100200111020,
111020100200111020100000,
302010111020102010111020,
111010101010111111222222, //100
10221132,
11223122,
3000000011111122,
2222111222112212,
1,
#GOGOEND
0, //106
#END
COURSE:Hard
LEVEL:8
BALLOON:16,20,7,7,22
SCOREINIT:1770
SCOREDIFF:0
#START
0,
0,
0,
22220022,
22000000,
2002,
02,
11110011,
11001010,
20220010,
11002222,
3000111010003000,
1110101020201110,
3000111010003000,
1110101020201000,
10221122,
11221122,
0020020020020020,
0200200200200020, //19
20011000,
01112020,
3335,
000000000000000008000000200000000000000000000000,
1000202010101022,
2022202220222022,
2011101010222011,
1000200020222000,
30211033,
00211033,
0000200010010010,
33,
10221122,
2220202010102020,
11221122,
12, //35
22220022,
22002020,
20020020,
02002020,
20220022,
22002020,
2700,
0008,
11110011,
11001010,
10010010,
0022200010010030,
0011101020102010,
1110101020102010,
1000111010010010,
9,
09,
8,
500000000000000000000000000008000000400000000000, //54
#MEASURE 17/16
#GOGOSTART
10001110
#BPMCHANGE 210.38
#SCROLL 0.89
200200200,
#MEASURE 9/8
111222,
#MEASURE 4/4
#BPMCHANGE 187
#SCROLL 1
1000201010001110,
#MEASURE 9/8
#BPMCHANGE 210.38
#SCROLL 0.89
222111,
#MEASURE 4/4
#BPMCHANGE 187
#SCROLL 1
1011111010010010,
1011111020020020,
07000080,
#MEASURE 9/8
#BPMCHANGE 210.38
#SCROLL 0.89
222111, //62
#MEASURE 4/4
#BPMCHANGE 187
#SCROLL 1
1000201110102000,
1010201110011010,
100000000000200000100000100000000100000001000000,
444333,
3000111011101110,
1110222011104000,
3000222022202220,
2220111022201110,
3001001010101110,
3001001022202000,
6,
000000000000000000000000000000000000000008000000,
33333333,
600000000000000000000000000000000000000008000000, //76
#GOGOEND
2,
22,
20022000,
#GOGOSTART
444333,
3011111010010010,
1011111030030030,
07000080,
#MEASURE 9/8
#BPMCHANGE 210.38
#SCROLL 0.89
222111, //84
#MEASURE 4/4
#BPMCHANGE 187
#SCROLL 1
1000201110102000,
1010201110011010,
100000200100100010001000,
444333,
3000111011101110,
1110222011102220,
100000000000200000100100100000001000000010000000,
600000000000000000000000000000000000000008000000,
300111100111,
111100111100,
300111100111,
111100222200,
300111100111,
111100111100,
300111100300,
111100222200, //100
30221030,
11103011,
9,
09,
8,
#GOGOEND
0, //106
#END
COURSE:Normal
LEVEL:6
BALLOON:13,16,6,6,16
SCOREINIT:3000
SCOREDIFF:0
#START
0,
0,
0,
2002,
0,
2002,
0,
1001,
01,
1001,
0,
30111030,
11101010,
30111030,
11102000,
1222,
1111,
01001001,
0222, //19
11,
0122,
3335,
000000000000000000000000000008000000000000000000,
10111020,
2222,
20111022,
1111,
30011033,
00111033,
0010101010010010,
13,
1222,
22202020,
11102020,
12, //35
1002,
22,
2002,
02,
2002,
22,
7,
0008,
1101,
1011,
10010010,
0020200010010030,
01101110,
11101110,
1000101010010010,
9,
09,
8,
11111040, //54
#MEASURE 17/16
#GOGOSTART
10001010
#BPMCHANGE 210.38
#SCROLL 0.89
100100100,
#MEASURE 9/8
100111,
#MEASURE 4/4
#BPMCHANGE 187
#SCROLL 1
10022010,
#MEASURE 9/8
#BPMCHANGE 210.38
#SCROLL 0.89
222200,
#MEASURE 4/4
#BPMCHANGE 187
#SCROLL 1
1000000010010010,
10201007,
0008,
#MEASURE 9/8
#BPMCHANGE 210.38
#SCROLL 0.89
111100, //62
#MEASURE 4/4
#BPMCHANGE 187
#SCROLL 1
10111020,
1000200010010010,
1210,
333333,
30111010,
11101040,
30222020,
22202220,
3001001010002000,
3001001010002000,
6,
000000000000000000000000000008000000000000000000,
33303333,
600000000000000000000000000008000000000000000000, //76
#GOGOEND
2,
22,
22,
#GOGOSTART
333333,
3000101010010010,
10203007,
0008,
#MEASURE 9/8
#BPMCHANGE 210.38
#SCROLL 0.89
111100, //84
#MEASURE 4/4
#BPMCHANGE 187
#SCROLL 1
10111020,
1000200010010010,
1210,
333333,
30111010,
11102220,
100000100100100010001000,
600000000000000000000000000008000000000000000000,
3113,
1130,
3113,
1142,
3113,
1130,
3113,
1140, //100
3013,
0130,
9,
09,
8,
#GOGOEND
0, //106
#END
COURSE:Easy
LEVEL:3
BALLOON:9,11,4,4,12
SCOREINIT:8180
SCOREDIFF:0
#START
0,
0,
0,
2,
0,
2,
0,
1,
0,
1,
0,
6,
000000000000000008000000000000000000000000000000,
6,
000000000000000000000000000008000000000000000000,
1,
0,
2,
0, //19
11,
0,
3035,
000000000000000000000000000008000000000000000000,
1,
11,
1,
11,
30000003,
00000003,
0,
33,
1,
2,
1,
2, //35
1,
2,
2002,
0,
2,
2,
7,
0008,
1,
1,
1001,
00000003,
01,
11,
22,
9,
09,
8,
0, //54
#MEASURE 17/16
#GOGOSTART
10001000
#BPMCHANGE 210.38
#SCROLL 0.89
100000000,
#MEASURE 9/8
11,
#MEASURE 4/4
#BPMCHANGE 187
#SCROLL 1
11,
#MEASURE 9/8
#BPMCHANGE 210.38
#SCROLL 0.89
22,
#MEASURE 4/4
#BPMCHANGE 187
#SCROLL 1
1011,
10001007,
0008,
#MEASURE 9/8
#BPMCHANGE 210.38
#SCROLL 0.89
12, //62
#MEASURE 4/4
#BPMCHANGE 187
#SCROLL 1
11,
1,
11,
34,
11,
1003,
32,
22,
31,
1011,
6,
000000000000000000000000000008000000000000000000,
3333,
600000000000000000000000000008000000000000000000, //76
#GOGOEND
2,
0,
2,
#GOGOSTART
34,
1110,
10003007,
0008,
#MEASURE 9/8
#BPMCHANGE 210.38
#SCROLL 0.89
12, //84
#MEASURE 4/4
#BPMCHANGE 187
#SCROLL 1
11,
1,
11,
34,
3011,
1011,
1011,
600000000000000000000000000008000000000000000000,
3003,
01,
3003,
02,
3003,
01,
3006,
000000000000000000000000000008000000000000000000, //100
3003,
03,
9,
09,
8,
#GOGOEND
0, //106
#END