01 Pop SHEESH 02 Anime Orange Inferno (Fixed Scoring, Balloon/Drumroll Lengths) Onegai Muscle (Fixed Track (Ending), Dumbbell (All Difficulty), Various Drumroll/Balloon Lengths) Touch Off (Fixed Track, added Scores) 04 Children and Folk Shinako World (Added AC15 scoring) 07 Game Music Roca Roja (Fixed Balloon Lengths, Scores) Undying Legend (Fixed Oni Bar 63, Balloon Count (Hard)) 09 Namco Original 1/2 ~inside me (Fixed Ending BPM/Measures, Oni Bar 67) 142 Toki no Watari-dori (Fixed Balloon Count (Normal), Hard Bar 92, Easy Bar 91-94, BPM/HS (Normal/Easy)) Argent Memories (Fixed Balloon Count (Easy)) Ishiki no Waze (Fixed BPM/HS (Sub-Oni), Balloon Count (Oni), Hard Bar 40,49, Normal Bar 18,26,42, Easy Bar 75, various Balloon/Drumroll Lengths) Senkou Valkyria (Trimmed Chart, Fixed BPM/HS)
486 lines
6.9 KiB
Plaintext
486 lines
6.9 KiB
Plaintext
//TJADB Project
|
||
TITLE:Roca Roja
|
||
TITLEJA:Roca Roja
|
||
SUBTITLE:--Junichi Nakatsuru/ACE COMBAT 7: SKIES UNKNOWN
|
||
SUBTITLEJA:「ACE COMBAT 7: SKIES UNKNOWN」より
|
||
BPM:160
|
||
WAVE:Roca Roja.ogg
|
||
OFFSET:-1.750
|
||
DEMOSTART:1.622
|
||
|
||
//Shinuchi: 4770/3370/1660/1180
|
||
|
||
COURSE:Oni
|
||
LEVEL:9
|
||
BALLOON:12
|
||
SCOREINIT:400,1200
|
||
SCOREDIFF:95
|
||
|
||
#START
|
||
#MEASURE 2/4
|
||
10111110,
|
||
|
||
#MEASURE 4/4
|
||
0011111010010010,
|
||
0011111010010010,
|
||
0011111010010010,
|
||
0011111020002010,
|
||
|
||
0011111010010010,
|
||
0011111010010010,
|
||
0011111040040040,
|
||
000000000000000000001010200100100100200000300000, //9
|
||
|
||
0011111121012010,
|
||
0011111121012010,
|
||
0011111121012010,
|
||
0011111122222030,
|
||
|
||
0011111121012010,
|
||
0011111121012010,
|
||
0011111121012010,
|
||
2111211121112210, //17
|
||
|
||
0011201121012011,
|
||
0011201121012011,
|
||
0011201121012011,
|
||
0011201121012011,
|
||
|
||
0011201121012011,
|
||
0011201121012011,
|
||
0011201121012011,
|
||
0011201122221040, //25
|
||
|
||
#GOGOSTART
|
||
0011201121112021,
|
||
0011201121112021,
|
||
0011201121112021,
|
||
1111201222221040,
|
||
|
||
0011201121112021,
|
||
0011201121112021,
|
||
0011201121112011,
|
||
2111201211111040, //33
|
||
|
||
0011111121121120,
|
||
0022111121121120,
|
||
0011111121121120,
|
||
1122111122221120,
|
||
|
||
0011111121121120,
|
||
0022111121121120,
|
||
0011111121121120,
|
||
7008, //41
|
||
#GOGOEND
|
||
|
||
0000111110110010,
|
||
0011111110010100,
|
||
0011111110010110,
|
||
0001101000100110,
|
||
|
||
0011111110010110,
|
||
0011111110010010,
|
||
0011111110010010,
|
||
0011111112200040, //49
|
||
|
||
0012221112010010,
|
||
0012221112200120,
|
||
0012221112210010,
|
||
0012221112200120,
|
||
|
||
0012221112215000,
|
||
0,
|
||
000000000000000000000000000008000000000000300000,
|
||
0111212122112030, //57
|
||
|
||
#GOGOSTART
|
||
0011201022102002,
|
||
1010200110102211,
|
||
0110201022102002,
|
||
1010200110102211,
|
||
|
||
0110201022102002,
|
||
1010200110102211,
|
||
0110201022102002,
|
||
1110201022112210, //65
|
||
|
||
0011201022102022,
|
||
1010202110102211,
|
||
0110201022102022,
|
||
1010202110102211,
|
||
|
||
0110201022102022,
|
||
1010201120221120,
|
||
0011201022112021,
|
||
1010221121112030, //73
|
||
#GOGOEND
|
||
|
||
0011111110010010,
|
||
0011111110010010,
|
||
0011111110010010,
|
||
0011111122222210,
|
||
|
||
0011211211011012,
|
||
0011211211011012,
|
||
0011211211011012,
|
||
0022102021112030,
|
||
0,
|
||
0, //83
|
||
#END
|
||
|
||
|
||
COURSE:Hard
|
||
LEVEL:7
|
||
BALLOON:10,10,6
|
||
SCOREINIT:440,1800
|
||
SCOREDIFF:108
|
||
|
||
#START
|
||
#MEASURE 2/4
|
||
10111010,
|
||
|
||
#MEASURE 4/4
|
||
0011100010010010,
|
||
0011100010010010,
|
||
0011100010010010,
|
||
0011100020002040,
|
||
|
||
0011100010010010,
|
||
0011100010010010,
|
||
0011100040040040,
|
||
0000000011111030, //9
|
||
|
||
0011100011011010,
|
||
0011100011011010,
|
||
0011100011011010,
|
||
0011101020222030,
|
||
|
||
0011100022022020,
|
||
0011100022022020,
|
||
0011100022022020,
|
||
1110111011111040, //17
|
||
|
||
0000101110001010,
|
||
0000101110001010,
|
||
0000202220222020,
|
||
0022202000222020,
|
||
|
||
0000101110001010,
|
||
0000101110001010,
|
||
0000202220202050,
|
||
000000000000000000000000000000000008000000000000, //25
|
||
|
||
#GOGOSTART
|
||
0011102220201011,
|
||
0011102220201011,
|
||
0011102220201050,
|
||
000000000000000000000000000000000000000008000000,
|
||
|
||
0011102220201022,
|
||
0011102220201022,
|
||
0011102220201060,
|
||
000000000000000000000000000000000000000008000000, //33
|
||
|
||
0011101030030030,
|
||
0011101030030030,
|
||
0011101030030030,
|
||
7008,
|
||
|
||
0022202040040040,
|
||
0022202040040040,
|
||
0022202040040040,
|
||
7008, //41
|
||
#GOGOEND
|
||
|
||
0000111010010010,
|
||
0000111010010010,
|
||
0000111010010010,
|
||
0000111010010010,
|
||
|
||
0000222020020020,
|
||
0000222020020020,
|
||
0000222020020020,
|
||
0000222020020030, //49
|
||
|
||
0011111010010010,
|
||
0011111010010010,
|
||
0011111010010010,
|
||
0011111010010010,
|
||
|
||
0022222020020050,
|
||
0,
|
||
000000000000000000000000000008000000000000300000,
|
||
70008003, //57
|
||
|
||
#GOGOSTART
|
||
0010201011102000,
|
||
1010200011102010,
|
||
0010201011102000,
|
||
1010200011102010,
|
||
|
||
0010201011102000,
|
||
1010200011102010,
|
||
0010201011102000,
|
||
1010201000222030, //65
|
||
|
||
0010201011102010,
|
||
1010201011102010,
|
||
0010201011102010,
|
||
1010201000102220,
|
||
|
||
0010201011102010,
|
||
1010201011102010,
|
||
1010201011102010,
|
||
1010201011111030, //73
|
||
#GOGOEND
|
||
|
||
0011101110010010,
|
||
0011101110010010,
|
||
0011101110010010,
|
||
0011101110222030,
|
||
|
||
0011111010010010,
|
||
0011111010010010,
|
||
0011111010010010,
|
||
0011102011111030,
|
||
0,
|
||
0, //83
|
||
#END
|
||
|
||
|
||
COURSE:Normal
|
||
LEVEL:6
|
||
BALLOON:8,8,8,8
|
||
SCOREINIT:690,3870
|
||
SCOREDIFF:200
|
||
|
||
#START
|
||
#MEASURE 2/4
|
||
1011,
|
||
|
||
#MEASURE 4/4
|
||
0000000010010010,
|
||
0000000010010010,
|
||
0000000010010010,
|
||
00002004,
|
||
|
||
0000000010010010,
|
||
0000000010010010,
|
||
0000000040040040,
|
||
00000003, //9
|
||
|
||
0000100010010010,
|
||
0000100010010010,
|
||
0000100010010010,
|
||
00000003,
|
||
|
||
0000200020020020,
|
||
0000200020020020,
|
||
0000200020020020,
|
||
7008, //17
|
||
|
||
00101015,
|
||
000000000000000000000000000000000008000000000000,
|
||
00101111,
|
||
00010000,
|
||
|
||
00202022,
|
||
00022002,
|
||
00202025,
|
||
000000000000000000000000000000000008000000000000, //25
|
||
|
||
#GOGOSTART
|
||
00101015,
|
||
000000000000000000000000000000000008000000000000,
|
||
00101111,
|
||
00010000,
|
||
|
||
00202022,
|
||
00022002,
|
||
00202025,
|
||
000000000000000000000000000000000008000000000000, //33
|
||
|
||
0010100030030030,
|
||
0010100030030030,
|
||
0010100030030030,
|
||
7008,
|
||
|
||
0020200040040040,
|
||
0020200040040040,
|
||
0020200040040040,
|
||
7008, //41
|
||
#GOGOEND
|
||
|
||
00001002,
|
||
00001002,
|
||
00001002,
|
||
00001002,
|
||
|
||
0000000010010020,
|
||
0000000010010020,
|
||
0000000010010020,
|
||
0000000010010040, //49
|
||
|
||
0000100010010020,
|
||
0000100010010020,
|
||
0000100010010020,
|
||
0000100010010020,
|
||
|
||
0000100010010050,
|
||
0,
|
||
000000000000000000000000000000000008000000000000,
|
||
7008, //57
|
||
|
||
#GOGOSTART
|
||
0111,
|
||
10001011,
|
||
0111,
|
||
10001011,
|
||
|
||
0222,
|
||
20002022,
|
||
0222,
|
||
20002022, //65
|
||
|
||
00101110,
|
||
10201011,
|
||
00101110,
|
||
10201011,
|
||
|
||
00202220,
|
||
20102022,
|
||
00202220,
|
||
20102003, //73
|
||
#GOGOEND
|
||
|
||
0010100010010010,
|
||
0010100010010010,
|
||
0010100010010010,
|
||
01101013,
|
||
|
||
0020200020020020,
|
||
0020200020020020,
|
||
0020200020020020,
|
||
000000500000000000000000000008000000300000300000,
|
||
0,
|
||
0, //83
|
||
#END
|
||
|
||
|
||
COURSE:Easy
|
||
LEVEL:4
|
||
BALLOON:5,5,5,5
|
||
SCOREINIT:540,5700
|
||
SCOREDIFF:173
|
||
|
||
#START
|
||
#MEASURE 2/4
|
||
1001,
|
||
|
||
#MEASURE 4/4
|
||
00001001,
|
||
00001001,
|
||
00001001,
|
||
00002004,
|
||
|
||
00001001,
|
||
00001001,
|
||
0000000040040040,
|
||
00000003, //9
|
||
|
||
0000000010010010,
|
||
0000000010010010,
|
||
0000000010010010,
|
||
00000003,
|
||
|
||
0000000020020020,
|
||
0000000020020020,
|
||
0000000020020020,
|
||
7008, //17
|
||
|
||
00101015,
|
||
000000000000000000000000000000000008000000000000,
|
||
00101005,
|
||
000000000000000000000000000000000008000000000000,
|
||
|
||
00202025,
|
||
000000000000000000000000000000000008000000000000,
|
||
00202006,
|
||
000000000000000000000000000000000008000000000000, //25
|
||
|
||
#GOGOSTART
|
||
0111,
|
||
0101,
|
||
0111,
|
||
0101,
|
||
|
||
0222,
|
||
0202,
|
||
00202026,
|
||
000000000000000000000000000000000008000000000000, //33
|
||
|
||
0000000030030030,
|
||
0000000030030030,
|
||
0000000030030030,
|
||
7008,
|
||
|
||
0000000040040040,
|
||
0000000040040040,
|
||
0000000040040040,
|
||
7008, //41
|
||
#GOGOEND
|
||
|
||
00001001,
|
||
00001001,
|
||
00001001,
|
||
00001001,
|
||
|
||
00002002,
|
||
00002002,
|
||
00002002,
|
||
00002002, //49
|
||
|
||
00001001,
|
||
00001001,
|
||
00001001,
|
||
00001001,
|
||
|
||
00002005,
|
||
0,
|
||
000000000000000000000000000000000008000000000000,
|
||
7008, //57
|
||
|
||
#GOGOSTART
|
||
0111,
|
||
0101,
|
||
0111,
|
||
0101,
|
||
|
||
0222,
|
||
0202,
|
||
0222,
|
||
0202, //65
|
||
|
||
0111,
|
||
1011,
|
||
0111,
|
||
1011,
|
||
|
||
0222,
|
||
2022,
|
||
0222,
|
||
20202003, //73
|
||
#GOGOEND
|
||
|
||
0000000010010010,
|
||
0000000010010010,
|
||
0000000010010010,
|
||
00001003,
|
||
|
||
0000000020020020,
|
||
0000000020020020,
|
||
0000000020020020,
|
||
000000500000000000000008000000000000000000300000,
|
||
0,
|
||
0, //83
|
||
#END |