Files
Thonker2 c66b5c4b11 A huge wave of SUBTITLEJA fixes is approaching!
A lot of charts have their SUBTITLEJA updated to match with official games, including tracks released in WiiU2, Vita and VitaMS games.
Other fixes:
05 Variety
Donut Hole (Kenshi Yonezu) (Category Chaged from "01 Pop" to "05 Variety")
Senbonzakura -Sachiko Kobayashi Version- (Category Chaged from "01 Pop" to "05 Variety")

07 Game Music
Let’s Kouken! ~Koi no Choueki ha 1,000,000-Nen~ (Fixed weird filename)

09 Namco Original
Neko Kujira (Added Old Chart in AC5/CS3)
Dark Ex Machina♡ (Updated to use single BALLOON command on Oni)
2026-01-04 15:35:56 +08:00

609 lines
7.0 KiB
Plaintext

//TJADB Project
TITLE:Sengoku BASARA BGM Medley
TITLEJA:戦国BASARA BGMメドレー
SUBTITLE:--Shika@ni-san/Sengoku BASARA
SUBTITLEJA:
BPM:208
WAVE:Sengoku BASARA BGM Medley.ogg
OFFSET:-1.427
DEMOSTART:55.946
COURSE:Oni
LEVEL:9
BALLOON:2
SCOREINIT:350,1040
SCOREDIFF:85
#START
3011103000000000,
0,
0,
0,
3011103000000000,
000000000000000000000000500000000000000008000000,
3000000000000011,
10020020, //8
#GOGOSTART
1110201000112010,
1020001120102011,
1011201010112010,
1011201000102010,
1110201000112010,
1020001120102011,
1011201010112010,
1110202010102010,
1110201000112010,
1020001120102011,
1011201010112011,
1011201010102011,
1110201000112010,
1020001120102011,
1011201010112010,
#MEASURE 7/8
30222010201020, //24
#GOGOEND
#MEASURE 9/8
#BPMCHANGE 170
#SCROLL 1.22
3
#SCROLL 1
01101220, //25
#MEASURE 4/4
3002002011102010,
1002002011102020,
1021002010210020,
500000000000000000000008000000100000200000200200,
1021002011102020,
1021002011102020,
1021012010210120,
1010221010102210,
1010121012101220,
1012021020002210,
1012021020002220,
1012021020210120,
1012021120300000,
1022201011102220,
1022201011102220,
1010221010102210,
1010221210102212,
100010001000100111200000, //43
#GOGOSTART
3011201110112011,
1011201121012022,
1011201110112011,
1011201121112020,
3011201110112011,
1011201121012022,
1011201020112210,
2011211121112110,
202020101010201020700800, //52
#GOGOEND
#BPMCHANGE 172
1111201001012010,
1111201001112010,
1111201001012011,
2111201121112010,
1111201001012010,
1111201001112010,
1111201001012011,
2011201121112010,
1022122010221220,
1022122010221222,
1022122010221220,
1222122212112110,
1011201110112011,
1011201110112112,
1010122210101222,
1122221122121121, //68
1010222210102222,
1010222212012022,
1010222210102222,
1010222210212022,
1010222210102222,
1010222212012022,
1010222210102222,
1010222212212221,
1011222210112222,
1011222210112022,
1011222210112222,
1011222212012022,
1011222210112222,
1011222210112022,
1011222210112222,
1011222212212020, //84
#GOGOSTART
300000300000300222200100,
0010221022212000,
300000300000300222200100,
0010221012221020,
300000300000300222200100,
0010221022212000,
300000300000300222200100,
0010221012221020, //92
202020200000100000200000100100100000202020200000,
100000200000100100100000202020200000100000200000,
#GOGOEND
33030000,
0,
0,
0,
0,
0,
0,
0, //102
#END
COURSE:Hard
LEVEL:7
BALLOON:
SCOREINIT:420,1630
SCOREDIFF:113
#START
31130000,
0,
0,
0,
31130000,
0,
3000000000000011,
10020020, //8
#GOGOSTART
10210120,
12021020,
10212120,
10210120,
10210120,
12021020,
10212120,
30030030,
30210120,
12021020,
10212120,
10210120,
10210120,
12021020,
10212120,
#MEASURE 7/8
1112221, //24
#GOGOEND
#MEASURE 9/8
#BPMCHANGE 170
#SCROLL 1.22
3
#SCROLL 1
00000000,
#MEASURE 4/4
1002002010002000,
1002002010102000,
1002002010020020,
500000000000000000000000000000000000000008000000,
1002002010002000,
1002002010002000,
1002002010020020,
11201120,
1010111011101000,
10012120,
1000001020020020,
1000001020020020,
500000000000000000000000000000000000000008000000,
1022201000102000,
1022201000102000,
1010111010101110,
10210120,
100000001000000010000000100000100100200000000000, //43
#GOGOSTART
1011101011101000,
1011101011101000,
1011101011101000,
2011102011102000,
1011101011101000,
1011101011101000,
1011101011101000,
2011102011102000,
111111111100, //52
#GOGOEND
#BPMCHANGE 172
1000100010111010,
1000100010111010,
500000000000000008000000500000000000000008000000,
1011101011102000,
1000100010111010,
1000100010111010,
500000000000000008000000500000000000000008000000,
1011101011102000,
1011101020111010,
1011101020002000,
1011101020111000,
3434,
1011101010102000,
1011101010102000,
1011101010111010,
1011101011102000, //68
1010001010111010,
1010001010111010,
11011101,
1020102010111000,
1010001010111010,
1010001010111010,
11011101,
1020102010111000,
1000100010111010,
1000100011101000,
1000100010111000,
3434,
1011101010102000,
1011101010102000,
1011101010111010,
1011101011102000, //84
#GOGOSTART
30303001,
0010111011101000,
30303002,
0020222022202000,
30303001,
0010111011101000,
30303002,
0020222022202000, //92
2220101020202220,
1010202022201010,
#GOGOEND
33030000,
0,
0,
0,
0,
0,
0,
0, //102
#END
COURSE:Normal
LEVEL:6
BALLOON:
SCOREINIT:510,2560
SCOREDIFF:150
#START
3,
0,
0,
0,
3,
0,
3,
3, //8
#GOGOSTART
11,
1101,
22,
2202,
11,
1101,
22,
30030030,
31,
1101,
22,
2202,
11,
1101,
22,
#MEASURE 7/8
3000300, //24
#GOGOEND
#MEASURE 9/8
#BPMCHANGE 170
#SCROLL 1.22
3
#SCROLL 1
00000000, //25
#MEASURE 4/4
30101011,
10101011,
1212,
500000000000000000000000000000000000000008000000,
10101011,
1110,
3003003030030030,
6,
000000000000000000000000000000000000000008000000,
1002,
1002,
1002,
1,
10201110,
10201110,
500000000000000000000000000000000008000000000000,
600000000000000000000000000000000008000000000000,
300000000300000003000000300000000000400000000000, //43
#GOGOSTART
10201120,
10111000,
10201120,
3330,
10201120,
10201120,
10201120,
3330,
600000000000000000000000000000000000000008000000, //52
#GOGOEND
#BPMCHANGE 172
11001100,
11001120,
11001100,
10101110,
11001100,
11001120,
11001100,
10101110,
30101110,
10101110,
10101120,
1212,
10102220,
10102220,
11,
10101110, //68
30101110,
10101120,
11001100,
10101110,
10101110,
10101120,
11001100,
10101110,
10201022,
1210,
10201022,
1212,
10001100,
10001100,
11001100,
11111110, //84
#GOGOSTART
40404003,
03304040,
40404003,
03304040,
40404003,
03304040,
40404003,
03304040, //92
11102011,
10201110,
#GOGOEND
33030000,
0,
0,
0,
0,
0,
0,
0, //102
#END
COURSE:Easy
LEVEL:4
BALLOON:
SCOREINIT:510,4540
SCOREDIFF:178
#START
3,
0,
0,
0,
3,
0,
3,
3, //8
#GOGOSTART
11,
1011,
11,
1011,
11,
1011,
11,
3,
11,
1110,
11,
1110,
11,
1110,
11,
#MEASURE 7/8
3, //24
#GOGOEND
#MEASURE 9/8
#BPMCHANGE 170
#SCROLL 1.22
3
#SCROLL 1
00000000, //25
#MEASURE 4/4
32,
1110,
12,
1110,
12,
1100,
33,
6,
000000000000000000000000000008000000000000000000,
1001,
1001,
1001,
1,
1101,
1101,
500000000000000000000000000008000000000000000000,
600000000000000000000000000008000000000000000000,
3004, //43
#GOGOSTART
1022,
1022,
1022,
33,
1022,
1022,
1022,
3360,
000000000000000000000008000000000000000000000000, //52
#GOGOEND
#BPMCHANGE 172
12,
1100,
12,
1100,
12,
1100,
15,
000000000000000000000000000008000000000000000000,
12,
1022,
12,
1111,
12,
1022,
11,
1111, //68
3011,
1011,
11,
1,
3011,
1011,
11,
1,
12,
1022,
12,
1022,
11,
11,
5,
000000000000000000000000000008000000000000000000, //84
#GOGOSTART
2220,
0011,
2220,
0011,
2220,
0011,
2220,
1011, //92
4440,
4440,
#GOGOEND
30030000,
0,
0,
0,
0,
0,
0,
0,
#END