Files
2026-09-09 16:46:55 -04:00

500 lines
5.3 KiB
Plaintext
Raw Permalink Blame History

This file contains ambiguous Unicode characters
This file contains Unicode characters that might be confused with other characters. If you think that this is intentional, you can safely ignore this warning. Use the Escape button to reveal them.
//TJADB Project
TITLE:Shocking na Kare
TITLEJA:ショッキングな彼
SUBTITLE:--Koji Nakagawa feat. Akiko Hasegawa/THE iDOLM@STER MUST SONGS: Red Album
SUBTITLEJA:
BPM:168
WAVE:Shocking na Kare.ogg
OFFSET:-1.676
DEMOSTART:76.676
SCENEPRESET:IMAS
COURSE:Oni
LEVEL:8
BALLOON:
SCOREINIT:450,1370
SCOREDIFF:113
#START
10211020,
10211021,
11211121,
1110111011101111,
#GOGOSTART
11221122,
11210330,
11221122,
12210440,
11221122,
1110222011102220,
1110111011101110,
1122112211222211,
11221122,
11210330,
11221122,
12210440,
11221122,
1110222011102220,
1110111011101110,
1122112222111010,
#GOGOEND
0010100010222010,
0010100010222010,
01221101,
2010201020112020,
1020101000222000,
1020101000222000,
12110121,
0020200022202010,
0010100010222010,
0010100010222010,
10110201,
2010201020112020,
1020101000222000,
1020101000222000,
30303303,
04401010,
10211040,
10211040,
10212040,
30331111,
10210121,
20210120,
1110111011101110,
1010101000221111,
11210121,
11210121,
11210121,
0010201010102222,
1110222011102220,
10330110,
2220111020100030,
0011101110111030,
03302201,
00211021,
21202021,
0010202010222010,
01210120,
1011101110111011,
2011201120112011,
1011202210112022,
1022102210222010,
00211021,
21202021,
0010202010222010,
01210120,
1011101110111011,
2011201120112011,
1011202210112012,
1010102210222010,
0010202010222010,
0010202010222010,
0011201110112011,
1011202210222010,
0010202010222010,
0010202010222010,
0022202220222022,
1122112211222211,
#GOGOSTART
11221122,
11210330,
11221122,
12210440,
11221122,
1111222211112222,
11111144,
0330
#GOGOEND
0000,
0,
#END
COURSE:Hard
LEVEL:5
BALLOON:13,13,13
SCOREINIT:530,2220
SCOREDIFF:145
#START
0,
00000009,
0009,
8,
#GOGOSTART
11221122,
11210330,
11221122,
12210440,
11221122,
1313,
1414,
1414,
11221122,
11210330,
11221122,
12210440,
11221122,
1313,
1414,
30303011,
#GOGOEND
01101221,
01101221,
01221102,
3333,
10110220,
10110220,
10110221,
02202221,
01101221,
01101221,
10110202,
3333,
10110220,
10110220,
30303303,
04401010,
500000000000000000000008000000000000400000000000,
500000000000000000000008000000000000400000000000,
500000000000000000000008000000000000400000000000,
30330000,
10210121,
20210120,
1111,
11110000,
10210121,
20210121,
20210121,
01201120,
1111,
10330000,
20202205,
000000000000000000000000000008000000000000300000,
03300001,
00211021,
20211021,
01221221,
02210220,
10201121,
01201205,
000000000000000000000000000000000000000008000000,
00000001,
00211021,
20211021,
01221221,
02210220,
10201120,
10210121,
01202121,
01101201,
01102003,
09,
00009008,
00001201,
01102003,
09,
00009008,
0,
#GOGOSTART
11221122,
11210330,
11221122,
12210440,
11221122,
1414,
600000000000000000000008000000000000300000300000,
0330
#GOGOEND
0000,
0,
#END
COURSE:Normal
LEVEL:5
BALLOON:10,13,5,5,5,5,13,13
SCOREINIT:660,3320
SCOREDIFF:230
#START
0,
00000009,
0009,
8,
#GOGOSTART
0303,
00300330,
0404,
00400440,
0303,
0303,
0404,
0444,
0303,
00300330,
0404,
00400440,
0303,
0303,
0303,
0333,
#GOGOEND
00200440,
00200440,
0202,
3333,
00100110,
00100110,
7,
08,
00200440,
00200440,
0202,
3333,
00100110,
00100110,
30303303,
0,
500000000000000000000008000000000000400000000000,
500000000000000000000008000000000000400000000000,
500000000000000000000008000000000000400000000000,
30330000,
1202,
1202,
1111,
11110000,
1202,
1202,
1202,
1202,
1111,
10330000,
10101105,
000000000000000000000000000008000000000000300000,
03300001,
00111007,
00008001,
01102207,
08,
10101110,
20202205,
000000000000000000000000000000000000000008000000,
00000001,
00111007,
00008001,
01102207,
08,
10101110,
20202205,
0,
000000000008000000000000100000100000000000100000,
00003003,
09,
00009008,
00001101,
00003003,
09,
00009008,
0,
#GOGOSTART
0303,
00300330,
0404,
00400440,
0303,
0404,
600000000000000000000008000000000000300000300000,
0330
#GOGOEND
0000,
0,
#END
COURSE:Easy
LEVEL:4
BALLOON:8,13,5,5,5,5,10,11,10
SCOREINIT:530,4490
SCOREDIFF:195
#START
0,
00000009,
0009,
8,
#GOGOSTART
0303,
0303,
0404,
0404,
0303,
0303,
0404,
0404,
0303,
0303,
0404,
0404,
0303,
0303,
0303,
0303,
#GOGOEND
00000440,
00000440,
0,
3333,
0202,
2202,
7,
08,
00000440,
00000440,
0,
3333,
0202,
2200,
30303003,
0,
500000000000000000000008000000000000400000000000,
500000000000000000000008000000000000400000000000,
500000000000000000000008000000000000400000000000,
30330000,
0202,
0101,
5,
000000000000000008000000000000000000000000000000,
0101,
0202,
0101,
0200,
1111,
10030000,
10101005,
000000000000000000000000000008000000000000300000,
03300001,
00101007,
00008001,
00101007,
08,
11,
10101005,
000000000000000000000000000000000000000008000000,
00000001,
00101007,
00008001,
00101007,
08,
11,
10101005,
0,
000000000008000000000000000000000000000000100000,
00001003,
09,
00009008,
00000001,
00001003,
09,
00009008,
0,
#GOGOSTART
0303,
0303,
0404,
0404,
0303,
0404,
9000000000000009,
08
#GOGOEND
00,
0,
#END