Files
TFD500 e86d2787f2 The Donscore Incident (2025, colorized)
- Lots of Donscore2TJA stuff fixed correctly with PeepoDrumKit.
- XEVIOUS Kantan and Futsuu fixed with big note being a 12th instead of a 4th/8th.
- Star Soldier Medley has its delay correctly applied.
- The Ultimate now has the correct TITLEJA.
2025-11-17 11:20:05 -05:00

210 lines
2.3 KiB
Plaintext

//TJADB Project
TITLE:Shooting Star
TITLEJA:Shooting Star
SUBTITLE:--Nana Mizuki/Happy Dance Collection
SUBTITLEJA:「ハッピーダンスコレクション」より
BPM:116
WAVE:Shooting Star.ogg
OFFSET:-2.276
DEMOSTART:46.661
COURSE:Oni
LEVEL:6
BALLOON:20
SCOREINIT:1040
SCOREDIFF:250
#START
1010201101101110,
1010201101102220,
1010201101101110,
10110000,
1020102101201020,
1020102101201000,
1020102101201020,
1020111201201020,
1020102101201020,
1020102101201000,
1020102101201020,
1020111212002000,
1010201101102000,
1010201101102000,
11210121,
1010202202202000,
1010201101102000,
1010201101102000,
500000000008000000000000500000000008000000000000,
600000000008000000000000600000000008000000000000,
7,
80001121,
#GOGOSTART
0020112010102010,
0020120202102010,
0010211010112010,
0010201111020010,
0010201000112010,
01210121,
0011201000112010,
0011200010102010,
0020112010102010,
0020120202102010,
0010211010112010,
0010201111020010,
0010201000112010,
01210121,
0011201000112010,
0011200000102010,
#GOGOEND
5000000000080000,
#END
COURSE:Hard
LEVEL:4
BALLOON:11
SCOREINIT:1230
SCOREDIFF:320
#START
01101101,
02200111,
01101101,
02220000,
1010001200200000,
1010001200200000,
1010001200200000,
1010100100000000,
1010001200200000,
1010001200200000,
1010001200200000,
1010100100000000,
1010100101100000,
1010100101100000,
11210121,
,
1010100101100000,
1010100101100000,
10021002,
10021002,
70000008,
00001115,
0000080010101010,
#GOGOSTART
5000000800000010,
0010200010201110,
0010200000001110,
01210121,
01100121,
01210121,
00101115,
0000080010101010,
5000000800000010,
0010200010201110,
0010100000001110,
01210121,
01100121,
01210121,
01100111,
#GOGOEND
5000000000080000,
#END
COURSE:Normal
LEVEL:3
BALLOON:10
SCOREINIT:1530
SCOREDIFF:620
#START
0101,
0202,
0101,
0100,
11,
1120,
11,
1200,
11,
1120,
11,
2200,
1012,
1012,
11,
2,
1012,
1012,
10011001,
10011000,
70000008,
00001115,
#GOGOSTART
08001110,
50080001,
00201022,
00100001,
00201022,
00100001,
00110011,
00001115,
08001110,
50080001,
00201022,
00100001,
00201022,
00100001,
01110111,
00100100,
#GOGOEND
60000800,
#END
COURSE:Easy
LEVEL:3
BALLOON:8
SCOREINIT:1450
SCOREDIFF:770
#START
1100,
1100,
1100,
2200,
11,
12,
11,
1100,
11,
12,
11,
1100,
1001,
1001,
2002,
2,
1001,
1001,
11,
11,
70000008,
05,
#GOGOSTART
8011,
50080000,
1011,
1,
12,
1200,
12,
1250,
8011,
50080000,
1011,
1,
12,
1200,
33,
3300,
#GOGOEND
60000800,
#END