Files
ESE/07 Game Music/Sora no Michishirube/Sora no Michishirube Oira Version.tja

220 lines
1.6 KiB
Plaintext

//TJADB Project
TITLE:Sora no Michishirube -Oira Audio/Chart-
TITLEJA:ソラのミチシルベ
SUBTITLE:--picnic feat. Madoka Yonezawa/Granblue Fantasy
SUBTITLEJA:オイラ音源・譜面
BPM:160
WAVE:Sora no Michishirube Oira Version.ogg
OFFSET:-0.035
DEMOSTART:43.970
COURSE:Hard
LEVEL:5
BALLOON:15,13
SCOREINIT:840
SCOREDIFF:210
#START
0,
0,
1,
1003,
01101105,
08, //6
1212,
1210,
1212,
1210,
1212,
1212,
30030030,
03000000, //14
1212,
1210,
1212,
1210,
1212,
1212,
11111111,
01020200, //22
1112,
1112,
10110115,
08,
1112,
1112,
33330333,
00300125, //30
#GOGOSTART
00080125,
00080125,
0812,
10210115,
0081,
10110200,
50080115,
00080125, //38
00080121,
01210125,
0812,
10220115,
0083,
30340303,
03600000,
0,
0,
8, //48
0,
0,
44000000,
0,
44000000,
0,
4,
4, //56
4,
4,
7,
08,
33030303,
33300001,
0,
2,
2,
2, //66
2,
2,
50000803,
00000125,
00080121,
01210125,
0812,
10220115,
0083,
30340303,
03700000,
00080000, //78
#END
COURSE:Normal
LEVEL:2
BALLOON:
SCOREINIT:3000
SCOREDIFF:750
#START
0,
0,
1,
0002,
0,
0, //6
1,
1,
1,
1,
1,
1,
1,
0, //14
1,
2,
1,
2,
1,
2,
1,
0, //22
2,
0,
2,
0,
2,
0,
1011,
00000001, //30
#GOGOSTART
0,
1,
1,
2,
11,
1,
1,
00000001, //38
0,
1,
1,
2,
1,
10000001,
0100,
0,
0,
0, //48
1,
0,
2,
0,
2,
0,
2,
2, //56
2,
2,
2,
0,
10010000,
10000001,
0,
0,
2,
0, //66
2,
0,
20000001,
00000001,
0,
11,
1,
2,
1,
10000001,
0500,
00080000, //78
#END